[GSCQ]天降奇兵 The.League.of.Extraordinary.Gentlemen.2003.1080p.BluRay.x264-WPi 7.9G 更早 欧美 奇幻

精灵小王子 2018-10-20 15:48 1992

The.League.of.Extraordinary.Gentlemen.2003.1080p.BluRay.x264-WPi

◎译  名 天降奇兵/超凡绅士联盟/奇幻兵团 LXG/绅士大联盟

◎片  名 The League of Extraordinary Gentlemen

◎年  代 2003

◎产  地 美国/德国/捷克/英国

◎类  别 动作/奇幻/科幻

◎语  言 英语/德语/意大利语

◎上映日期 2003-07-11

◎IMDb评分  5.8/10 from 153,714 users

◎IMDb链接  http://www.imdb.com/title/tt0311429/

◎豆瓣评分 6.9/10 from 18,595 users

◎豆瓣链接 https://movie.douban.com/subject/1303910/

◎片  长 110 分钟

◎导  演 斯蒂芬·诺林顿 Stephen Norrington

◎主  演 肖恩·康纳利 Sean Connery

      纳萨鲁丁·沙 Naseeruddin Shah

      皮塔·威尔逊 Peta Wilson

      托尼·库兰 Tony Curran

      斯图尔特·汤森德 Stuart Townsend


◎简  介


  1899年的新旧世纪之交,欧洲各国处于难得的和平时期,然而一股新近崛起的邪恶势力在首脑“幽灵”的策划下,凭借当时人们闻所未闻的先进武器,在各国间制造误会与摩擦,妄想点燃世界大战的火焰。英国政府邀请隐居非洲的传奇冒险家艾伦·考特曼(Sean Connery  饰)出山解决此次危机,艾伦虽对冒险心生厌倦,但不忍非洲大陆陷入战火,遂与女吸血鬼米娜、化身博士海德、透明人斯基纳、不老不死的英俊青年格雷、尼摩船长、美国特工汤姆·索亚组成绅士联盟,乘坐尼摩船长的鹦鹉号潜艇前往威尼斯阻止幽灵的阴谋。经威尼斯一役,联盟发现此次行动居然是幽灵安排好的棋局,一切只为取得联盟成员各自的超能本领以便实现他更大的野心,被激怒的绅士联盟前往冰雪覆盖下的北国,对幽灵的组织发起了最后的决战……


Video
ID : 1
Format : AVC
Format/Info : Advanced Video Codec
Format profile : High@L5.1
Format settings : CABAC / 5 Ref Frames
Format settings, CABAC : Yes
Format settings, ReFrames : 5 frames
Codec ID : V_MPEG4/ISO/AVC
Duration : 1 h 50 min
Bit rate : 8 821 kb/s
Width : 1 920 pixels
Height : 816 pixels
Display aspect ratio : 2.35:1
Frame rate mode : Constant
Frame rate : 23.976 FPS
Color space : YUV
Chroma subsampling : 4:2:0
Bit depth : 8 bits
Scan type : Progressive
Bits/(Pixel*Frame) : 0.235
Stream size : 6.63 GiB (83%)
Title : Video
Writing library : x264 core 59 r826 138601d
Encoding settings : cabac=1 / ref=5 / deblock=1:0:0 / analyse=0x3:0x133 / me=umh / subme=7 / brdo=1 / mixed_ref=1 / me_range=16 / chroma_me=1 / trellis=1 / 8x8dct=1 / cqm=0 / deadzone=21,11 / chroma_qp_offset=0 / threads=6 / nr=0 / decimate=1 / mbaff=0 / bframes=3 / b_pyramid=1 / b_adapt=1 / b_bias=0 / direct=1 / wpredb=1 / bime=1 / keyint=250 / keyint_min=25 / scenecut=40(pre) / rc=2pass / bitrate=8821 / ratetol=1.0 / rceq=\'blurCplx^(1-qComp)\' / qcomp=1.00 / qpmin=10 / qpmax=51 / qpstep=4 / cplxblur=20.0 / qblur=0.5 / ip_ratio=1.40 / pb_ratio=1.30 / aq=2:1.00
Default : Yes
Forced : No

Audio
ID : 2
Format : DTS
Format/Info : Digital Theater Systems
Codec ID : A_DTS
Duration : 1 h 50 min
Bit rate mode : Constant
Bit rate : 1 509 kb/s
Channel(s) : 6 channels
Channel positions : Front: L C R, Side: L R, LFE
Sampling rate : 48.0 kHz
Frame rate : 93.750 FPS (512 SPF)
Bit depth : 24 bits
Compression mode : Lossy
Stream size : 1.16 GiB (15%)
Title : English (DTS)
Language : English
Default : Yes
Forced : No



上传的附件:
最新回复 (2)
  • jjldf 2018-10-21 20:46
    3
    谢谢分享!
  • wu82 2018-10-21 18:14
    2
    感谢分享
返回