[GSCQ]惊爆银河系/银河追缉令 Galaxy.Quest.1999.1080p.Bluray.X264-DIMENSION 7.9GB 更早 欧美 科幻

solomovie 2018-10-19 16:13 3864

Galaxy.Quest.1999.1080p.Bluray.X264-DIMENSION

◎译  名 惊爆银河系/银河追缉令/星际远征/银河探索/银河访客/外星人的邀请

◎片  名 Galaxy Quest

◎年  代 1999

◎产  地 美国

◎类  别 动作/冒险/喜剧/科幻

◎语  言 英语

◎上映日期 1999-12-23

◎IMDb评分  7.3/10 from 134,620 users

◎IMDb链接  http://www.imdb.com/title/tt0177789/

◎豆瓣评分 7.8/10 from 4,993 users

◎豆瓣链接 https://movie.douban.com/subject/1293656/

◎片  长 102 分钟

◎导  演 迪恩·帕里索特 Dean Parisot

◎主  演 山姆·洛克威尔 Sam Rockwell

      蒂姆·艾伦 Tim Allen

      西格妮·韦弗 Sigourney Weaver

      艾伦·瑞克曼 Alan Rickman

      托尼·夏尔赫布 Tony Shalhoub


◎简  介


  《银河探险》是一套二十年前讲述太空NSEA保护者故事的电视科幻剧集,1982年停播,接近二十年后,饰演指挥官的贾森(蒂姆•艾伦 Tim Allen 饰),饰演博士的亚历山大(艾伦•瑞克曼 Alan Rickman 饰),以及格温(西格妮•韦弗 Sigourney Weaver 饰)等几位演员再度聚首,参加一系列粉丝见面会和商业活动。期间,一群自称塞米安人的怪诞粉丝跟随贾森到他的家里,疲惫的贾森发现这群塞米安人并非疯狂粉丝,而是真正的外星人!没有欺骗能力的塞米安人在收看《银河探险》后以为贾森等人是真正的太空英雄,他们在和宇宙恶徒萨里斯的对决中节节败退,于是远赴地球寻求保护者们的帮助,贾森和亚历山大等船员假戏真做,帮助塞米安人对抗宇宙邪恶势力……


◎获奖情况


  第26届报知映画赏  (2001)

  海外作品奖 迪恩·帕里索特


Video
ID : 1
Format : AVC
Format/Info : Advanced Video Codec
Format profile : High@L4.1
Format settings : CABAC / 5 Ref Frames
Format settings, CABAC : Yes
Format settings, ReFrames : 5 frames
Codec ID : V_MPEG4/ISO/AVC
Duration : 1 h 42 min
Bit rate : 10.5 Mb/s
Width : 1 920 pixels
Height : 816 pixels
Display aspect ratio : 2.35:1
Frame rate mode : Constant
Frame rate : 23.976 FPS
Color space : YUV
Chroma subsampling : 4:2:0
Bit depth : 8 bits
Scan type : Progressive
Bits/(Pixel*Frame) : 0.279
Stream size : 7.33 GiB (92%)
Writing library : x264 core 79 r1342 e8501ef
Encoding settings : cabac=1 / ref=5 / deblock=1:-1:-1 / analyse=0x3:0x113 / me=umh / subme=8 / psy=1 / psy_rd=1.0:0.0 / mixed_ref=1 / me_range=16 / chroma_me=1 / trellis=1 / 8x8dct=1 / cqm=0 / deadzone=21,11 / chroma_qp_offset=-2 / threads=6 / nr=0 / decimate=1 / mbaff=0 / constrained_intra=0 / bframes=3 / b_pyramid=0 / b_adapt=1 / b_bias=0 / direct=3 / wpredb=1 / wpredp=2 / keyint=250 / keyint_min=25 / scenecut=40 / rc_lookahead=40 / rc=2pass / mbtree=1 / bitrate=10495 / ratetol=1.0 / qcomp=0.60 / qpmin=10 / qpmax=51 / qpstep=4 / cplxblur=20.0 / qblur=0.5 / ip_ratio=1.40 / aq=1:1.10
Language : English
Default : Yes
Forced : No

Audio
ID : 2
Format : AC-3
Format/Info : Audio Coding 3
Codec ID : A_AC3
Duration : 1 h 42 min
Bit rate mode : Constant
Bit rate : 640 kb/s
Channel(s) : 6 channels
Channel positions : Front: L C R, Side: L R, LFE
Sampling rate : 48.0 kHz
Frame rate : 31.250 FPS (1536 SPF)
Bit depth : 16 bits
Compression mode : Lossy
Stream size : 468 MiB (6%)
Language : English
Service kind : Complete Main
Default : Yes
Forced : No

Text
ID : 3
Format : UTF-8
Codec ID : S_TEXT/UTF8
Codec ID/Info : UTF-8 Plain Text
Language : English
Default : Yes
Forced : No



上传的附件:
最新回复 (0)
返回