[GSCQ]德古拉元年 Dracula.Untold.2014.1080p.BluRay.x264.DTS-SWTYBLZ 9.41GB 2014 欧美 奇幻

solomovie 2018-10-19 16:12 3000

Dracula.Untold.2014.1080p.BluRay.x264.DTS-SWTYBLZ

◎译  名 德古拉元年/德古拉:永咒传奇(台)/德古拉伯爵:血魔降生(港)/德古拉秘辛

◎片  名 Dracula Untold

◎年  代 2014

◎产  地 美国

◎类  别 剧情/动作/奇幻

◎语  言 英语

◎上映日期 2014-10-02(英国)/2014-10-10(美国)

◎IMDb评分  6.3/10 from 153,699 users

◎IMDb链接  http://www.imdb.com/title/tt0829150/

◎豆瓣评分 6.1/10 from 17,912 users

◎豆瓣链接 https://movie.douban.com/subject/2147872/

◎片  长 92分钟

◎导  演 盖瑞·肖 Gary Shore

◎主  演 卢克·伊万斯 Luke Evans

      莎拉·加顿 Sarah Gadon

      多米尼克·库珀 Dominic Cooper

      阿特·帕金森 Art Parkinson

      查尔斯·丹斯 Charles Dance

      迪尔梅德·默塔 Diarmaid Murtagh

      保罗·凯耶 Paul Kaye

      威廉·休斯顿 William Houston

      诺亚·亨特雷 Noah Huntley

      罗南·维博特 Ronan Vibert

      扎克·麦克格温 Zach McGowan

      约瑟夫·朗 Joseph Long

      雅酷朴·盖尔秀 Jakub Gierszał


◎简  介


  15世纪中叶,作风彪悍残忍的穿刺王弗拉德(卢克·伊万斯 Luke Evans 饰)在土耳其苏丹的扶持下回到故乡特兰西瓦尼亚,建立起一个和平祥和的国家。然而此时此刻他仍受制于土耳其苏丹王穆罕默德(多米尼克·库珀 Dominic Cooper 饰),苏丹要求弗拉德献上一千个男孩充军,包括他儿子在内的孩子们都将成为嗜血统治者的牺牲品。不愿孩子重走自己当年血腥之路的弗拉德奋起反抗,屠杀使者。为了赢得战争的胜利,他闯入神秘而恐怖的断牙山,期望借助传说中的怪物之手击退土耳其的入侵者。

  他为了国家不惜抛弃良知和灵魂,由此注定了千古悲剧的开始。吸血鬼德古拉的传说由此上演……


Video
ID : 1
Format : AVC
Format/Info : Advanced Video Codec
Format profile : High@L4.1
Format settings : CABAC / 5 Ref Frames
Format settings, CABAC : Yes
Format settings, ReFrames : 5 frames
Codec ID : V_MPEG4/ISO/AVC
Duration : 1 h 32 min
Bit rate : 13.1 Mb/s
Width : 1 920 pixels
Height : 800 pixels
Display aspect ratio : 2.40:1
Frame rate mode : Constant
Frame rate : 23.976 (24000/1001) FPS
Color space : YUV
Chroma subsampling : 4:2:0
Bit depth : 8 bits
Scan type : Progressive
Bits/(Pixel*Frame) : 0.356
Stream size : 8.44 GiB (90%)
Title : Dracula.Untold.2014.1080p.BluRay.x264.DTS-SWTYBLZ
Writing library : x264 core 148 r2748 97eaef2
Encoding settings : cabac=1 / ref=5 / deblock=1:-1:-1 / analyse=0x3:0x133 / me=umh / subme=10 / psy=1 / psy_rd=1.00:0.15 / mixed_ref=1 / me_range=48 / chroma_me=1 / trellis=2 / 8x8dct=1 / cqm=0 / deadzone=21,11 / fast_pskip=1 / chroma_qp_offset=-3 / threads=25 / lookahead_threads=4 / sliced_threads=0 / nr=0 / decimate=0 / interlaced=0 / bluray_compat=0 / constrained_intra=0 / bframes=8 / b_pyramid=2 / b_adapt=2 / b_bias=0 / direct=3 / weightb=1 / open_gop=0 / weightp=2 / keyint=250 / keyint_min=23 / scenecut=40 / intra_refresh=0 / rc_lookahead=60 / rc=crf / mbtree=1 / crf=14.0 / qcomp=0.60 / qpmin=0 / qpmax=69 / qpstep=4 / ip_ratio=1.40 / aq=1:1.00
Language : English
Default : Yes
Forced : No

Audio
ID : 2
Format : DTS
Format/Info : Digital Theater Systems
Codec ID : A_DTS
Duration : 1 h 32 min
Bit rate mode : Constant
Bit rate : 1 509 kb/s
Channel(s) : 6 channels
Channel positions : Front: L C R, Side: L R, LFE
Sampling rate : 48.0 kHz
Frame rate : 93.750 FPS (512 SPF)
Bit depth : 24 bits
Compression mode : Lossy
Stream size : 995 MiB (10%)
Title : Dracula.Untold.2014.1080p.BluRay.x264.DTS-SWTYBLZ
Language : English
Default : Yes
Forced : No

Text
ID : 3
Format : UTF-8
Codec ID : S_TEXT/UTF8
Codec ID/Info : UTF-8 Plain Text
Duration : 1 h 24 min
Bit rate : 30 b/s
Count of elements : 757
Stream size : 18.8 KiB (0%)
Language : English
Default : Yes
Forced : No

Menu
00:00:00.000 : en:Chapter 1
00:04:08.289 : en:Chapter 2
00:07:21.566 : en:Chapter 3
00:11:33.818 : en:Chapter 4
00:16:31.699 : en:Chapter 5
00:22:54.664 : en:Chapter 6
00:30:24.447 : en:Chapter 7
00:34:17.764 : en:Chapter 8
00:38:58.044 : en:Chapter 9
00:43:01.370 : en:Chapter 10
00:47:04.738 : en:Chapter 11
00:53:17.736 : en:Chapter 12
00:57:40.832 : en:Chapter 13
01:00:48.311 : en:Chapter 14
01:04:31.033 : en:Chapter 15
01:09:13.190 : en:Chapter 16
01:12:48.614 : en:Chapter 17
01:17:12.878 : en:Chapter 18
01:21:53.658 : en:Chapter 19
01:25:03.556 : en:Chapter 20




上传的附件:
最新回复 (0)
返回