[GSCQ]地狱来的房东 The.Super.1991.1080p.AMZN.WEBRip.DD2.0.x264-ViSUM 8.3GB 更早 欧美 喜剧

精灵小王子 2018-10-18 15:29 3312

The.Super.1991.1080p.AMZN.WEBRip.DD2.0.x264-ViSUM

◎译  名 地狱来的房东/天才智多星

◎片  名 The Super

◎年  代 1991

◎产  地 美国/日本

◎类  别 喜剧

◎语  言 英语/西班牙语

◎上映日期 1991-10-04

◎IMDb评分  5.5/10 from 4,606 users

◎IMDb链接  http://www.imdb.com/title/tt0103007/

◎片  长 84 分钟/USA: 95 分钟

◎导  演 罗德 丹尼尔 (Rod Daniel)

◎主  演 乔·佩西 Joe Pesci

      文森特·加迪尼亚 Vincent Gardenia

      玛多林·史密斯·奥斯巴内 Madolyn Smith Osborne

      卢宾·布雷兹 Rubén Blades

      斯塔西·达维斯 Stacey Travis

      阿卜杜拉耶·恩戈姆 Abdoulaye NGom

      安东尼·希尔德 Anthony Heald


◎简  介


  剧情描述路易原来是个刻薄小气的缺德房东,他无意改善大楼的老旧设备,催讨房租却不择手段。房客们一状告到法院,法官判路易住进大楼内一百二十天,让他亲身体会住在贫氏窟的滋味。路易表面上仍对住客摆出一副死不认错的冷漠嘴脸,但在饱受各种求助无门的居住窘境之后,终于改善设备以作为内心的救赎,并进一步挺身反抗自己的法西斯父亲。


Video
ID : 1
Format : AVC
Format/Info : Advanced Video Codec
Format profile : High@L4
Format settings : CABAC / 4 Ref Frames
Format settings, CABAC : Yes
Format settings, ReFrames : 4 frames
Codec ID : V_MPEG4/ISO/AVC
Duration : 1 h 25 min
Bit rate mode : Variable
Bit rate : 13.7 Mb/s
Maximum bit rate : 15.0 Mb/s
Width : 1 920 pixels
Height : 1 080 pixels
Display aspect ratio : 16:9
Frame rate mode : Constant
Frame rate : 23.976 (24000/1001) FPS
Color space : YUV
Chroma subsampling : 4:2:0
Bit depth : 8 bits
Scan type : Progressive
Bits/(Pixel*Frame) : 0.275
Stream size : 8.20 GiB (98%)
Default : Yes
Forced : No
Color range : Limited
Color primaries : BT.709
Transfer characteristics : BT.709
Matrix coefficients : BT.709

Audio
ID : 2
Format : E-AC-3
Format/Info : Enhanced Audio Coding 3
Codec ID : A_EAC3
Duration : 1 h 25 min
Bit rate mode : Constant
Bit rate : 224 kb/s
Channel(s) : 2 channels
Channel positions : Front: L R
Sampling rate : 48.0 kHz
Frame rate : 187.500 FPS (256 SPF)
Compression mode : Lossy
Stream size : 138 MiB (2%)
Language : English
Service kind : Complete Main
Default : Yes
Forced : No

Text #1
ID : 3
Format : UTF-8
Codec ID : S_TEXT/UTF8
Codec ID/Info : UTF-8 Plain Text
Duration : 1 h 25 min
Bit rate : 83 b/s
Count of elements : 1634
Stream size : 52.3 KiB (0%)
Language : English
Default : No
Forced : No

Text #2
ID : 4
Format : UTF-8
Codec ID : S_TEXT/UTF8
Codec ID/Info : UTF-8 Plain Text
Duration : 1 h 25 min
Bit rate : 86 b/s
Count of elements : 1736
Stream size : 54.2 KiB (0%)
Title : SDH
Language : English
Default : No
Forced : No



上传的附件:
最新回复 (0)
返回