[GSCQ]小尼基/魔鬼接班人 Little.Nicky.2000.1080p.WEBRip.DDP5.1.x264-NTb 6.8GB 更早 欧美 喜剧

精灵小王子 2018-10-18 15:25 1608

Little.Nicky.2000.1080p.WEBRip.DDP5.1.x264-NTb

◎译  名 小尼基/魔鬼接班人/超级撒旦人/魔界小小强/撒旦之子小尼奇/小奈奇

◎片  名 Little Nicky

◎年  代 2000

◎产  地 美国

◎类  别 奇幻/喜剧/爱情

◎语  言 英语

◎上映日期 2000-11-10

◎IMDb评分  5.3/10 from 88,847 users

◎IMDb链接  http://www.imdb.com/title/tt0185431/

◎豆瓣评分 6.5/10 from 1,449 users

◎豆瓣链接 https://movie.douban.com/subject/1306461/

◎片  长 90 分钟

◎导  演 史蒂文·布里尔 Steven Brill

◎主  演 亚当·桑德勒 Adam Sandler

      帕特丽夏·阿奎特 Patricia Arquette

      哈威·凯特尔 Harvey Keitel

      瑞斯·伊凡斯 Rhys Ifans

      瑞茜·威瑟斯彭 Reese Witherspoon

      昆汀·塔伦蒂诺 Quentin Tarantino

      罗伯·施奈德 Rob Schneider


◎简  介


  虽然同样是地狱之王的儿子,和野心勃勃的哥哥卡修斯(汤米·里斯特 Tommy Lister 饰)与阿达利亚(瑞斯·伊凡斯 Rhys Ifans 饰)不同,尼基(亚当·桑德勒 Adam Sandler 饰)身材矮小个性又懦弱。在地狱夺取王位不成,卡修斯和阿达利亚决定转移战场来到人间,而他们的离去对于地狱来说却是致命的。

  为了拯救父亲和整个地狱王国,尼基来到了人间,他的任务是将两个老奸巨猾的哥哥捉拿归案,对于老实的弟弟来说,这真的没问题吗?在人间,尼基结识了美丽温柔的女孩瓦拉莉(帕特丽夏·阿奎特 Patricia Arquette 饰),两人互生好感,可惜被阿达利亚设计破坏。对于尼基的追捕,阿达利亚当然不会坐以待毙,心狠手辣的他甚至试图将弟弟置于死地,不幸的是,他成功了。


Video
ID : 1
Format : AVC
Format/Info : Advanced Video Codec
Format profile : High@L4
Format settings : CABAC / 4 Ref Frames
Format settings, CABAC : Yes
Format settings, ReFrames : 4 frames
Codec ID : V_MPEG4/ISO/AVC
Duration : 1 h 30 min
Bit rate mode : Variable
Bit rate : 10.3 Mb/s
Maximum bit rate : 15.0 Mb/s
Width : 1 920 pixels
Height : 1 040 pixels
Display aspect ratio : 1.85:1
Frame rate mode : Constant
Frame rate : 23.976 (24000/1001) FPS
Color space : YUV
Chroma subsampling : 4:2:0
Bit depth : 8 bits
Scan type : Progressive
Bits/(Pixel*Frame) : 0.214
Stream size : 6.47 GiB (94%)
Default : Yes
Forced : No
Color range : Limited
Color primaries : BT.709
Transfer characteristics : BT.709
Matrix coefficients : BT.709

Audio
ID : 2
Format : E-AC-3
Format/Info : Enhanced Audio Coding 3
Codec ID : A_EAC3
Duration : 1 h 30 min
Bit rate mode : Constant
Bit rate : 640 kb/s
Channel(s) : 6 channels
Channel positions : Front: L C R, Side: L R, LFE
Sampling rate : 48.0 kHz
Frame rate : 187.500 FPS (256 SPF)
Compression mode : Lossy
Stream size : 414 MiB (6%)
Language : English
Service kind : Complete Main
Default : Yes
Forced : No

Text
ID : 3
Format : UTF-8
Codec ID : S_TEXT/UTF8
Codec ID/Info : UTF-8 Plain Text
Duration : 1 h 29 min
Bit rate : 80 b/s
Count of elements : 2051
Stream size : 52.6 KiB (0%)
Language : English
Default : No
Forced : No




上传的附件:
最新回复 (1)
  • 严梓 2018-10-20 22:58
    2
    楼主辛苦
返回