[GSCQ]八年级 Eighth.Grade.2018.1080p.AMZN.WEBRip.DDP5.1.x264-NTG 4.49GB 2018 欧美 喜剧

solomovie 2018-10-18 15:14 2028

Eighth.Grade.2018.1080p.AMZN.WEBRip.DDP5.1.x264-NTG

◎译  名 八年级

◎片  名 Eighth Grade

◎年  代 2018

◎产  地 美国

◎类  别 喜剧

◎语  言 英语

◎上映日期 2018-01-19(圣丹斯电影节)

◎IMDb评分  8.1/10 from 9,015 users

◎IMDb链接  http://www.imdb.com/title/tt7014006/

◎豆瓣评分 7.5/10 from 587 users

◎豆瓣链接 https://movie.douban.com/subject/27109381/

◎片  长 94分钟

◎导  演 博·伯翰 Bo Burnham

◎主  演 艾尔西·费舍尔 Elsie Fisher

      艾米丽 罗宾森 Emily Robinson

      约什·汉密尔顿 Josh Hamilton

      蜜西·雅格 Missy Yager

      Greg Crowe

      Deborah Unger

      弗兰克·迪尔 Frank Deal


◎简  介


  故事讲述13岁的凯拉(艾尔西·费舍尔 饰)在初中的最后一周,所经历的青春故事...


Video
ID : 1
Format : AVC
Format/Info : Advanced Video Codec
Format profile : High@L4
Format settings : CABAC / 4 Ref Frames
Format settings, CABAC : Yes
Format settings, ReFrames : 4 frames
Codec ID : V_MPEG4/ISO/AVC
Duration : 1 h 33 min
Bit rate : 6 216 kb/s
Width : 1 920 pixels
Height : 1 040 pixels
Display aspect ratio : 1.85:1
Frame rate mode : Constant
Frame rate : 23.976 (24000/1001) FPS
Color space : YUV
Chroma subsampling : 4:2:0
Bit depth : 8 bits
Scan type : Progressive
Bits/(Pixel*Frame) : 0.130
Stream size : 4.07 GiB (91%)
Default : Yes
Forced : No
Color range : Limited
Color primaries : BT.709
Transfer characteristics : BT.709
Matrix coefficients : BT.709

Audio
ID : 2
Format : E-AC-3
Format/Info : Enhanced Audio Coding 3
Codec ID : A_EAC3
Duration : 1 h 33 min
Bit rate mode : Constant
Bit rate : 640 kb/s
Channel(s) : 6 channels
Channel positions : Front: L C R, Side: L R, LFE
Sampling rate : 48.0 kHz
Frame rate : 187.500 FPS (256 SPF)
Compression mode : Lossy
Stream size : 429 MiB (9%)
Language : English
Service kind : Complete Main
Default : Yes
Forced : No

Text
ID : 3
Format : UTF-8
Codec ID : S_TEXT/UTF8
Codec ID/Info : UTF-8 Plain Text
Duration : 1 h 30 min
Bit rate : 70 b/s
Count of elements : 1578
Stream size : 46.4 KiB (0%)
Title : SDH
Language : English
Default : No
Forced : No




上传的附件:
最新回复 (0)
返回