[GSCQ]下层人 Lowlife.2017.1080p.BluRay.x264.DTS-CHD 7.38GB CHDBits 2017 欧美 喜剧

DarkMeridian 2018-10-18 14:58 2376

Lowlife.2017.1080p.BluRay.x264.DTS-CHD

◎译  名 下层人

◎片  名 Lowlife

◎年  代 2017

◎产  地 美国

◎类  别 剧情/喜剧/犯罪/惊悚/恐怖

◎语  言 英语/西班牙语

◎上映日期 2017-07(加拿大奇幻电影节)/2018-04-06(美国)

◎IMDb评分  6.4/10 from 783 users

◎IMDb链接  http://www.imdb.com/title/tt7012864/

◎片  长 96分钟

◎导  演 瑞恩·普劳斯 Ryan Prows

◎主  演 Nicki Micheaux

      里卡多·亚当·扎拉提 Ricardo Adam Zarate

      乔恩·奥斯华尔德 Jon Oswald

      谢伊·奥邦纳 Shaye Ogbonna

      桑塔纳·邓普希 Santana Dempsey

      马克·伯恩汉姆 Mark Burnham

      乔斯·罗赛特 Jose Rosete

      Jearnest Corchado

      Clayton Cardenas

      Olivia Benavides


◎简  介


  The sordid lives of an addict, an ex-con, and a luchador collide when an organ harvesting caper goes very, very wrong.


Video
ID : 1
Format : AVC
Format/Info : Advanced Video Codec
Format profile : High@L4.1
Format settings : CABAC / 5 Ref Frames
Format settings, CABAC : Yes
Format settings, ReFrames : 5 frames
Codec ID : V_MPEG4/ISO/AVC
Duration : 1 h 36 min
Bit rate : 9 500 kb/s
Width : 1 920 pixels
Height : 800 pixels
Display aspect ratio : 2.40:1
Frame rate mode : Constant
Frame rate : 23.976 (24000/1001) FPS
Color space : YUV
Chroma subsampling : 4:2:0
Bit depth : 8 bits
Scan type : Progressive
Bits/(Pixel*Frame) : 0.258
Stream size : 6.36 GiB (86%)
Writing library : x264 core 155 r2901 7d0ff22
Encoding settings : cabac=1 / ref=5 / deblock=1:-3:-3 / analyse=0x3:0x113 / me=umh / subme=10 / psy=1 / psy_rd=1.05:0.10 / mixed_ref=1 / me_range=48 / chroma_me=1 / trellis=2 / 8x8dct=1 / cqm=0 / deadzone=21,11 / fast_pskip=0 / chroma_qp_offset=-2 / threads=18 / lookahead_threads=1 / sliced_threads=0 / nr=0 / decimate=1 / interlaced=0 / bluray_compat=0 / constrained_intra=0 / bframes=6 / b_pyramid=2 / b_adapt=2 / b_bias=0 / direct=3 / weightb=1 / open_gop=0 / weightp=2 / keyint=250 / keyint_min=23 / scenecut=40 / intra_refresh=0 / rc=2pass / mbtree=0 / bitrate=9500 / ratetol=2.0 / qcomp=0.70 / qpmin=0 / qpmax=69 / qpstep=4 / cplxblur=20.0 / qblur=0.5 / ip_ratio=1.40 / pb_ratio=1.30 / aq=3:1.00
Default : Yes
Forced : No

Audio
ID : 2
Format : DTS
Format/Info : Digital Theater Systems
Codec ID : A_DTS
Duration : 1 h 36 min
Bit rate mode : Constant
Bit rate : 1 509 kb/s
Channel(s) : 6 channels
Channel positions : Front: L C R, Side: L R, LFE
Sampling rate : 48.0 kHz
Frame rate : 93.750 FPS (512 SPF)
Bit depth : 24 bits
Compression mode : Lossy
Stream size : 1.02 GiB (14%)
Language : English
Default : Yes
Forced : No

Text
ID : 3
Format : UTF-8
Codec ID : S_TEXT/UTF8
Codec ID/Info : UTF-8 Plain Text
Duration : 1 h 30 min
Bit rate : 36 b/s
Count of elements : 931
Stream size : 24.1 KiB (0%)
Language : English
Default : Yes
Forced : No

Menu
00:00:00.000 : en:00:00:00.000
00:06:36.813 : en:00:06:36.813
00:09:46.836 : en:00:09:46.836
00:15:34.016 : en:00:15:34.016
00:21:26.827 : en:00:21:26.827
00:29:57.921 : en:00:29:57.921
00:38:26.095 : en:00:38:26.095
00:50:52.299 : en:00:50:52.299
01:00:20.492 : en:01:00:20.492
01:11:12.268 : en:01:11:12.268
01:17:44.785 : en:01:17:44.785
01:32:26.791 : en:01:32:26.791



上传的附件:
最新回复 (0)
返回