[GSCQ]唐人街探案2 Detective.Chinatown.2.2018.1080p.BluRay.x264-WiKi 14GB 2018 大陆 喜剧 中文字幕

DarkMeridian 2018-10-18 14:58 2244

Detective.Chinatown.2.2018.CHINESE.1080p.BluRay.x264-WiKi

◎译  名 唐探2

◎片  名 唐人街探案2

◎年  代 2018

◎产  地 中国大陆

◎类  别 喜剧/动作/犯罪/悬疑

◎语  言 汉语普通话

◎上映日期 2018-02-16(中国大陆)

◎IMDb评分  6.1/10 from 925 users

◎IMDb链接  http://www.imdb.com/title/tt7752454/

◎豆瓣评分 6.7/10 from 419,483 users

◎豆瓣链接 https://movie.douban.com/subject/26698897/

◎片  长 121分钟

◎导  演 陈思诚 Sicheng Chen

◎主  演 王宝强 Baoqiang Wang

      刘昊然 Haoran Liu

      肖央 Yang Xiao

      刘承羽 Natasha Liu Bordizzo

      尚语贤 Yuxian Shang

      王迅 Xun Wang

      妻夫木聪 Satoshi Tsumabuki

      迈克尔·皮特 Michael Pitt

      白灵 Ling Bai

      元华 Wah Yuen

      曾江 Kenneth Tsang

      王成思 Chengsi Wang

      杨金赐 Jinci Yang

      范湉湉 Tiantian Fan

      佟丽娅 Liya Tong

      陈思诚 Sicheng Chen


◎简  介


  唐仁(王宝强 饰)为巨额奖金欺骗秦风(刘昊然 饰)到纽约参加世界名侦探大赛,然而随着和世界各国侦探们啼笑皆非的较量,两人却发现了隐藏在这次挑战背后的更大秘密...


◎获奖情况


  第25届北京大学生电影节  (2018)

  最受大学生欢迎影片


  第4届豆瓣电影年度榜单  (2017)

  最值得期待的华语电影(提名)



Video
ID : 1
Format : AVC
Format/Info : Advanced Video Codec
Format profile : High@L4.1
Format settings : CABAC / 5 Ref Frames
Format settings, CABAC : Yes
Format settings, ReFrames : 5 frames
Codec ID : V_MPEG4/ISO/AVC
Duration : 2 h 0 min
Bit rate : 16.5 Mb/s
Width : 1 920 pixels
Height : 800 pixels
Display aspect ratio : 2.40:1
Frame rate mode : Constant
Frame rate : 24.000 FPS
Color space : YUV
Chroma subsampling : 4:2:0
Bit depth : 8 bits
Scan type : Progressive
Bits/(Pixel*Frame) : 0.448
Stream size : 13.9 GiB (96%)
Title : x264 @ 16,500 Kbps
Writing library : x264 core 129 r2245+704+36 8e61944 tMod+MixAQ [8-bit@4:2:0 X86_64]
Encoding settings : cabac=1 / ref=5 / deblock=1:-3:-3 / analyse=0x3:0x133 / me=umh / subme=11 / psy=1 / fade_compensate=0.00 / psy_rd=1.05:0.10 / mixed_ref=1 / me_range=64 / chroma_me=1 / trellis=2 / 8x8dct=1 / cqm=0 / deadzone=21,11 / fast_pskip=0 / chroma_qp_offset=-3 / threads=12 / lookahead_threads=2 / sliced_threads=0 / nr=0 / decimate=1 / interlaced=0 / bluray_compat=0 / constrained_intra=0 / fgo=0 / bframes=10 / b_pyramid=2 / b_adapt=2 / b_bias=0 / direct=3 / weightb=1 / open_gop=0 / weightp=2 / keyint=250 / keyint_min=24 / scenecut=40 / intra_refresh=0 / rc_lookahead=120 / rc=2pass / mbtree=1 / bitrate=16500 / ratetol=1.0 / qcomp=0.70 / qpmin=0 / qpmax=69 / qpstep=4 / cplxblur=20.0 / qblur=0.5 / vbv_maxrate=38000 / vbv_bufsize=30000 / nal_hrd=none / ip_ratio=1.40 / aq=1 / aq-strength=0.70 / aq-sensitivity=10.00 / aq-ifactor=1.00 / aq-pfactor=1.00 / aq-bfactor=1.00 / aq2=0
Language : Chinese
Default : Yes
Forced : No

Audio
ID : 2
Format : AC-3
Format/Info : Audio Coding 3
Codec ID : A_AC3
Duration : 2 h 0 min
Bit rate mode : Constant
Bit rate : 640 kb/s
Channel(s) : 6 channels
Channel positions : Front: L C R, Side: L R, LFE
Sampling rate : 48.0 kHz
Frame rate : 31.250 FPS (1536 SPF)
Bit depth : 16 bits
Compression mode : Lossy
Stream size : 553 MiB (4%)
Title : Chinese DD 5.1 @ 640 Kbps
Language : Chinese
Service kind : Complete Main
Default : Yes
Forced : No

Text #1
ID : 3
Format : UTF-8
Codec ID : S_TEXT/UTF8
Codec ID/Info : UTF-8 Plain Text
Duration : 1 h 58 min
Bit rate : 50 b/s
Count of elements : 2200
Stream size : 44.2 KiB (0%)
Title : Chs
Language : Chinese
Default : Yes
Forced : No

Text #2
ID : 4
Format : UTF-8
Codec ID : S_TEXT/UTF8
Codec ID/Info : UTF-8 Plain Text
Duration : 1 h 58 min
Bit rate : 50 b/s
Count of elements : 2200
Stream size : 44.2 KiB (0%)
Title : Cht
Language : Chinese
Default : No
Forced : No




上传的附件:
最新回复 (0)
返回