[GSCQ]安多弗/安杜佛/以上 Andover.2018.1080p.BluRay.x264.DTS-CHD 8.63GB CHDBits 2018 欧美 喜剧

似水柔情 2018-10-17 15:31 2388

Andover.2018.1080p.BluRay.x264.DTS-CHD

◎译  名 安多弗/安杜佛/以上

◎片  名 Andover

◎年  代 2018

◎产  地 美国

◎类  别 剧情/喜剧/爱情

◎语  言 英语

◎上映日期 2018-05-04(美国)

◎片  长 91分钟

◎导  演 Scott Perlman

◎主  演 乔纳森·斯沃曼 Jonathan Silverman

      詹妮佛·芬尼甘 Jennifer Finnigan

      丝柯·泰勒-考普顿 Scout Taylor-Compton

      斯蒂文·鲍尔 Steven Bauer

      安吉拉·金赛 Angela Kinsey

      白灵 Ling Bai

      乔纳森·利普尼基 Jonathan Lipnicki

      理查德·坎德 Richard Kind

      贝丝·格兰特 Beth Grant


◎简  介


  A genetics professor clones his dead wife, over and over, in a desperate attempt to get her back exactly as she was.


Video
ID : 1
Format : AVC
Format/Info : Advanced Video Codec
Format profile : High@L4.1
Format settings : CABAC / 5 Ref Frames
Format settings, CABAC : Yes
Format settings, ReFrames : 5 frames
Codec ID : V_MPEG4/ISO/AVC
Duration : 1 h 31 min
Bit rate : 12.0 Mb/s
Width : 1 920 pixels
Height : 802 pixels
Display aspect ratio : 2.40:1
Frame rate mode : Constant
Frame rate : 23.976 (24000/1001) FPS
Color space : YUV
Chroma subsampling : 4:2:0
Bit depth : 8 bits
Scan type : Progressive
Bits/(Pixel*Frame) : 0.324
Stream size : 7.67 GiB (89%)
Writing library : x264 core 155 r2893 b00bcaf
Encoding settings : cabac=1 / ref=5 / deblock=1:-3:-3 / analyse=0x3:0x113 / me=umh / subme=10 / psy=1 / psy_rd=1.00:0.05 / mixed_ref=1 / me_range=48 / chroma_me=1 / trellis=2 / 8x8dct=1 / cqm=0 / deadzone=21,11 / fast_pskip=0 / chroma_qp_offset=-2 / threads=18 / lookahead_threads=3 / sliced_threads=0 / nr=0 / decimate=1 / interlaced=0 / bluray_compat=0 / constrained_intra=0 / bframes=8 / b_pyramid=2 / b_adapt=2 / b_bias=0 / direct=3 / weightb=1 / open_gop=0 / weightp=2 / keyint=250 / keyint_min=23 / scenecut=40 / intra_refresh=0 / rc_lookahead=40 / rc=crf / mbtree=0 / crf=18.0 / qcomp=0.60 / qpmin=0 / qpmax=69 / qpstep=4 / vbv_maxrate=50000 / vbv_bufsize=45000 / crf_max=0.0 / nal_hrd=none / filler=0 / ip_ratio=1.40 / pb_ratio=1.30 / aq=3:1.00
Default : Yes
Forced : No
Color range : Limited
Matrix coefficients : BT.709

Audio
ID : 2
Format : DTS
Format/Info : Digital Theater Systems
Codec ID : A_DTS
Duration : 1 h 31 min
Bit rate mode : Constant
Bit rate : 1 509 kb/s
Channel(s) : 6 channels
Channel positions : Front: L C R, Side: L R, LFE
Sampling rate : 48.0 kHz
Frame rate : 93.750 FPS (512 SPF)
Bit depth : 24 bits
Compression mode : Lossy
Stream size : 989 MiB (11%)
Language : English
Default : Yes
Forced : No

Text
ID : 3
Format : UTF-8
Codec ID : S_TEXT/UTF8
Codec ID/Info : UTF-8 Plain Text
Duration : 1 h 26 min
Bit rate : 47 b/s
Count of elements : 993
Stream size : 30.3 KiB (0%)
Language : English
Default : Yes
Forced : No

Menu
00:00:00.000 : en:00:00:00.000
00:09:25.064 : en:00:09:25.064
00:19:23.412 : en:00:19:23.412
00:29:35.232 : en:00:29:35.232
00:37:49.350 : en:00:37:49.350
00:46:33.833 : en:00:46:33.833
00:55:26.782 : en:00:55:26.782
01:04:24.736 : en:01:04:24.736
01:13:20.146 : en:01:13:20.146
01:23:18.952 : en:01:23:18.952




上传的附件:
最新回复 (0)
返回