[GSCQ]神奇宝贝剧场版06.七夜的许愿星.2003.BD1080P.日语中字.Adans 3.37G(无水印带字幕) 更早 日本 动画

无敌关凤 2018-08-04 18:17 2652

片名:神奇宝贝剧场版05:七夜的许愿星

导演: Kunihiko Yuyama

类型: 动作 / 科幻 / 动画 / 家庭 / 冒险

制片国家/地区: 日本

语言: 日语

上映日期: 2003-07-19(日本)

片长: 81分钟

又名: 宠物小精灵剧场版:七夜的许愿星 / 劇場版ポケットモンスター 七夜の願い星 ジラーチ

IMDb链接: tt0420076


剧情简介:

  据说基拉祈只有一千年才会醒来一次,吸收千年彗星的力量,反哺给大地,从而使得法恩斯成为欣欣向荣的圣地。但就在这次苏醒前夕,魔术师巴特勒与他的女友兼助手黛安,将包裹基拉祈的结晶发掘并从法恩斯带走。 

  为了观看千年彗星出现的那一瞬间,小智一行人前往将举办千年彗星庆典的游乐场。当他们跑到指南上所描述的地点时,却失望地发现这里是一片荒凉的空地。由于天色已晚,他们便在这里吃晚饭,并决定在此露营过夜。深夜,当大家都在睡梦中时,一群车队从山的那头驶过来,惊醒了小智一行人。在游乐场的小市上,小遥买下了一款挂饰“圆梦之星”,据说,在可以看见千年彗星的七天之间,每天晚上都默念愿望,折入一个星星的角,等第七个夜晚结束的时候愿望必定会达成。小智和小胜意外成为了魔术师巴特勒的幸运观众(因为小胜听到了黛安手中结晶发出声音而跑向舞台)。巴特勒告知小胜是吉拉祈发出了声音,随后将结晶托付给了小胜。在远方一片森林深处,岩石发出了绿光,这些绿光聚集到小胜眼前的结晶。结晶的光芒愈加耀眼,它漂浮到空中,在白色的光辉中伸展出许多白色线条,同时慢慢变形。待白光褪去,结晶已经变成了基拉祈。希望基拉祈真的能实现愿望,小胜向基拉祈许愿,希望得到糖果,糖果随即出现——但事实上基拉祈仅仅使用了瞬间转移从小市搬来了糖果,并没有创造它们。 

  巴特勒的野心随即揭晓:他本是岩浆团的成员,致力于复活超古代神奇宝贝固拉多。他研发出了完美的系统,但无法找到足够的能源支持;为此,他企图利用基拉祈吸收的能量来满足自己的目的。预见了潜在危险的阿勃梭鲁——其出现往往昭示着灾难——带领黛安和小智一行启程赶回法恩斯。在基拉祈回归沉睡的前一天,小胜为即将失去一位朋友而感到失落,所以小智讲述了自己的朋友之一——小霞的故事,并说即便二人再难见面,但二人的友谊长存。在一行人赶到之前,巴特勒追赶而至,夺走了基拉祈并尝试获取能量。巴特勒的计划实施后,一只假固拉多被创造出来,后者开始将法恩斯化为荒芜,杀死了身周的植物,并不断吸收所有活着的生物。当戴安被假固拉多吞没之时,巴特勒终于认识到二人的感情才是最重要的,在小智与小胜的帮助之下,巴特勒终止了进程,假固拉多融化并最终消逝。 

  基拉祈重新吸收了创造出固拉多的能量,并陷入了千年沉睡。小遥因为过度兴奋,忘记了折入最后一个星星的角。尽管小遥从未表明自己的愿望,她坚信这愿望定会成真。


影片信息:

Format                         : Matroska

Format version                 : Version 4 / Version 2

File size                      : 3.11 GiB

Duration                       : 1 h 21 min

Overall bit rate               : 5 476 kb/s

Movie name                     : Adans

Encoded date                   : UTC 2018-08-03 11:21:22

Writing application            : mkvmerge v13.0.0 ('The Juggler') 64bit

Writing library                : libebml v1.3.4 + libmatroska v1.4.5

Video

ID                             : 1

Format                         : AVC

Format/Info                    : Advanced Video Codec

Format profile                 : High@L4.1

Format settings, CABAC         : Yes

Format settings, RefFrames     : 4 frames

Codec ID                       : V_MPEG4/ISO/AVC

Duration                       : 1 h 21 min

Bit rate                       : 5 283 kb/s

Width                          : 1 920 pixels

Height                         : 1 080 pixels

Display aspect ratio           : 16:9

Frame rate mode                : Constant

Frame rate                     : 23.976 (24000/1001) FPS

Color space                    : YUV

Chroma subsampling             : 4:2:0

Bit depth                      : 8 bits

Scan type                      : Progressive

Bits/(Pixel*Frame)             : 0.106

Stream size                    : 3.00 GiB (96%)

Title                          : Adans

Writing library                : x264 core 148 r2744kMod b97ae06

Encoding settings              : cabac=1 / ref=4 / deblock=1:0:0 / analyse=0x3:0x133 / me=umh / subme=9 / psy=1 / fade_compensate=0.00 / psy_rd=1.00:0.00 / mixed_ref=1 / me_range=16 / chroma_me=1 / trellis=2 / 8x8dct=1 / cqm=0 / deadzone=21,11 / fast_pskip=1 / chroma_qp_offset=-2 / threads=12 / lookahead_threads=1 / sliced_threads=0 / nr=0 / decimate=1 / interlaced=0 / bluray_compat=0 / constrained_intra=0 / bframes=3 / b_pyramid=2 / b_adapt=2 / b_bias=0 / direct=3 / weightb=1 / open_gop=0 / weightp=2 / keyint=250 / keyint_min=25 / scenecut=40 / intra_refresh=0 / rc_lookahead=60 / rc=2pass / mbtree=1 / bitrate=5283 / ratetol=1.0 / qcomp=0.60 / qpmin=0 / qpmax=69 / qpstep=4 / cplxblur=20.0 / qblur=0.5 / ip_ratio=1.40 / aq=1:1.00

Default                        : Yes

Forced                         : No

Audio

ID                             : 2

Format                         : AAC

Format/Info                    : Advanced Audio Codec

Format profile                 : LC

Codec ID                       : A_AAC

Duration                       : 1 h 21 min

Bit rate                       : 192 kb/s

Channel(s)                     : 2 channels

Channel positions              : Front: L R

Sampling rate                  : 48.0 kHz

Frame rate                     : 46.875 FPS (1024 SPF)

Compression mode               : Lossy

Delay relative to video        : 12 s 0 ms

Stream size                    : 111 MiB (3%)

Default                        : Yes

Forced                         : No


磁力链接;

magnet:?xt=urn:btih:2487847a3f94c312dd54c311512a85ccfce7e7c0&dn=宠物小精灵.七夜的许愿星.2003.BD1080P.日语中字.Adans

上传的附件:
最新回复 (2)
  • mcterry_1123 2018-08-04 21:03
    3
    感谢楼主分享!!
  • 佳佳 2018-08-04 18:50
    2
    谢谢分享~~~~~~~!
返回