[GSCQ]神奇宝贝剧场版05水都的守护神.拉帝亚斯与拉帝欧斯.2002.BD1080P.X264.AC3.Japanese.CHS.Adans 2.82G(无水印带字幕) 2007 日本 动画

无敌关凤 2018-08-04 14:56 2484

片名:神奇宝贝剧场版05:水都的守护神-拉帝亚斯与拉帝欧斯

导演: Jim Malone / 汤山邦彦

编剧: 园田英树

主演: 松本梨香 / 大谷育江 / 飯塚雅弓 / 上田祐司 / 神田宇野 / 更多...

类型: 动作 / 动画 / 家庭 / 犯罪 / 冒险

制片国家/地区: 日本

语言: 日语

上映日期: 2002-07-13(日本)

片长: 80分钟

又名: 皮卡丘英雄

IMDb链接: tt0347791


剧情简介:

  照常进行修业之旅的小智(松本梨香 配音)、小刚(上田祐司 配音)、小霞(饭塚雅弓 配音)一行辗转来到水之都奥多马雷参加紧张刺激的水上竞赛。奥多马雷流传着一个精彩的传说,在很久很久以前,岛上的老夫妇捡到一对孤儿兄妹,当邪魔出现时,两兄妹化作威力强大的神奇宝贝拉帝欧斯和拉帝亚斯,他们击败邪魔,并赐予奥多马雷人民名为“心灵水滴”的宝石作为守护。时至今日,神圣的心灵之滴却引起一对盗贼姐妹(释由美子 配音)的垂涎。她们在追踪妹妹拉帝亚斯(折笠富美子 配音)时遭遇小智并受挫,贪欲将带给水都史无前例的灾难…… 


影片信息:

Format                         : Matroska

Format version                 : Version 4 / Version 2

File size                      : 2.60 GiB

Duration                       : 1 h 11 min

Overall bit rate               : 5 182 kb/s

Movie name                     : Adans

Encoded date                   : UTC 2018-08-03 11:41:05

Writing application            : mkvmerge v13.0.0 ('The Juggler') 64bit

Writing library                : libebml v1.3.4 + libmatroska v1.4.5

Video

ID                             : 1

Format                         : AVC

Format/Info                    : Advanced Video Codec

Format profile                 : High@L4.1

Format settings, CABAC         : Yes

Format settings, RefFrames     : 4 frames

Codec ID                       : V_MPEG4/ISO/AVC

Duration                       : 1 h 11 min

Bit rate                       : 4 989 kb/s

Width                          : 1 920 pixels

Height                         : 1 080 pixels

Display aspect ratio           : 16:9

Frame rate mode                : Constant

Frame rate                     : 23.976 (24000/1001) FPS

Color space                    : YUV

Chroma subsampling             : 4:2:0

Bit depth                      : 8 bits

Scan type                      : Progressive

Bits/(Pixel*Frame)             : 0.100

Stream size                    : 2.50 GiB (96%)

Title                          : Adans

Writing library                : x264 core 148 r2744kMod b97ae06

Encoding settings              : cabac=1 / ref=4 / deblock=1:0:0 / analyse=0x3:0x133 / me=umh / subme=9 / psy=1 / fade_compensate=0.00 / psy_rd=1.00:0.00 / mixed_ref=1 / me_range=16 / chroma_me=1 / trellis=2 / 8x8dct=1 / cqm=0 / deadzone=21,11 / fast_pskip=1 / chroma_qp_offset=-2 / threads=12 / lookahead_threads=1 / sliced_threads=0 / nr=0 / decimate=1 / interlaced=0 / bluray_compat=0 / constrained_intra=0 / bframes=3 / b_pyramid=2 / b_adapt=2 / b_bias=0 / direct=3 / weightb=1 / open_gop=0 / weightp=2 / keyint=250 / keyint_min=25 / scenecut=40 / intra_refresh=0 / rc_lookahead=60 / rc=2pass / mbtree=1 / bitrate=4989 / ratetol=1.0 / qcomp=0.60 / qpmin=0 / qpmax=69 / qpstep=4 / cplxblur=20.0 / qblur=0.5 / ip_ratio=1.40 / aq=1:1.00

Default                        : Yes

Forced                         : No

Audio

ID                             : 2

Format                         : AAC

Format/Info                    : Advanced Audio Codec

Format profile                 : LC

Codec ID                       : A_AAC

Duration                       : 1 h 11 min

Bit rate                       : 192 kb/s

Channel(s)                     : 2 channels

Channel positions              : Front: L R

Sampling rate                  : 44.1 kHz

Frame rate                     : 43.066 FPS (1024 SPF)

Compression mode               : Lossy

Delay relative to video        : 13 s 500 ms

Stream size                    : 97.5 MiB (4%)

Default                        : Yes

Forced                         : No


一样的,这都是我换了台配国语的音频信息。。。


磁力链接:magnet:?xt=urn:btih:f0108094c7d054b71cdd2d9db617e2316eb4736b&dn=%E5%AE%A0%E7%89%A9%E5%B0%8F%E7%B2%BE%E7%81%B5.%E6%B0%B4%E9%83%BD%E7%9A%84%E5%AE%88%E6%8A%A4%E7%A5%9E.%E6%8B%89%E5%B8%9D%E4%BA%9A%E6%96%AF%E4%B8%8E%E6%8B%89%E5%B8%9D%E6%AC%A7%E6%96%AF.2002.BD1080P.X264.AC3.Japanese.CHS.Adans

上传的附件:
最新回复 (1)
  • 佳佳 2018-08-04 15:37
    2
    谢谢分享~!
返回