[GSCQ][动画短片]蜗牛.Les escargots.1966.FR.BluRay.1920x1080p.x264.AC3-KOOK 267M KOOK 更早 欧美 动画

kook 2018-07-28 18:15 4344


[动画短片]蜗牛.Les escargots.1966.FR.BluRay.1920x1080p.x264.AC3-KOOK 267M



※※※※※※※ 影片信息 ※※※※※※※

◎片   名 Les escargots

◎译   名 蜗牛

◎年   代 1965

◎国   家 法国

◎类   别 动画 / 短片

◎上映日 期 1965

◎字   幕 无对白

◎IMDB 评分  6.9/10 from 976 users

◎豆瓣 评分  7.6/10 from 259 users

◎视频尺 寸  1920x1080p

◎片   长 00.11.17

◎导   演 阿内·拉鲁

◎编   剧  阿内·拉鲁

 

◎简  介

  何内·拉路(Rene Laloux),法国动画大师,1929年出生在巴黎,在艺术学校学习绘画。毕业后从事广告,他从实习生就开始做试验动画,2004年3月14日逝世。他是1973年得到坎城影展金棕榈奖的巨擘级大师,有过当精神病院看护的经历,作品充满了"艾美丽异想式",他善于表现超现实的奇幻故事。他以长篇科幻动画《La Planete Sauvage》(奇幻星球),风格独树一格,画风类似素描插画,全片的皆以CUT-OUT 剪纸动画风格来呈现,角色的动作风格与传统的Character Animation 角色动画成对比,内容有别于美国迪士尼儿童动画。他的重要作品有:动画短片《死亡之时》,《蜗牛惊魂记》,《奇幻星球》,《时间掌握》,《甘达星人》,《王福先生获救记》。

※※※※※※※ 参数信息 ※※※※※※※

General

Unique ID                      : 171671429562871420946400325132897198062 (0x8126B6F53575ED0D996ACCBF82079FEE)

Format                         : Matroska

Format version                 : Version 4 / Version 2

File size                      : 268 MiB

Duration                       : 11 min

Overall bit rate               : 3 315 kb/s

Movie name                     : KOOK

Encoded date                   : UTC 2018-07-26 14:24:15

Writing application            : mkvmerge v9.4.2 ('So High') 64bit

Writing library                : libebml v1.3.4 + libmatroska v1.4.5

Attachments                    : p2357778855.jpg

Video

ID                             : 1

Format                         : AVC

Format/Info                    : Advanced Video Codec

Format profile                 : High@L4

Format settings, CABAC         : Yes

Format settings, ReFrames      : 4 frames

Codec ID                       : V_MPEG4/ISO/AVC

Duration                       : 11 min

Bit rate                       : 3 120 kb/s

Width                          : 1 920 pixels

Height                         : 1 080 pixels

Display aspect ratio           : 16:9

Frame rate mode                : Constant

Frame rate                     : 23.976 (24000/1001) FPS

Color space                    : YUV

Chroma subsampling             : 4:2:0

Bit depth                      : 8 bits

Scan type                      : Progressive

Bits/(Pixel*Frame)             : 0.063

Stream size                    : 252 MiB (94%)

Writing library                : x264 core 148 r2708 86b7198

Encoding settings              : cabac=1 / ref=4 / deblock=1:-3:-3 / analyse=0x3:0x133 / me=umh / subme=9 / psy=1 / psy_rd=1.00:0.00 / mixed_ref=1 / me_range=16 / chroma_me=1 / trellis=2 / 8x8dct=1 / cqm=0 / deadzone=21,11 / fast_pskip=1 / chroma_qp_offset=-2 / threads=12 / lookahead_threads=1 / sliced_threads=0 / nr=0 / decimate=1 / interlaced=0 / bluray_compat=0 / constrained_intra=0 / bframes=3 / b_pyramid=0 / b_adapt=1 / b_bias=0 / direct=1 / weightb=1 / open_gop=0 / weightp=2 / keyint=240 / keyint_min=24 / scenecut=40 / intra_refresh=0 / rc_lookahead=40 / rc=2pass / mbtree=1 / bitrate=3120 / ratetol=1.0 / qcomp=0.60 / qpmin=0 / qpmax=69 / qpstep=4 / cplxblur=20.0 / qblur=0.5 / vbv_maxrate=15000 / vbv_bufsize=15000 / nal_hrd=none / filler=0 / ip_ratio=1.40 / aq=1:1.00

Language                       : English

Default                        : Yes

Forced                         : No

Color range                    : Limited

Color primaries                : BT.709

Transfer characteristics       : BT.709

Matrix coefficients            : BT.709

Audio

ID                             : 2

Format                         : AC-3

Format/Info                    : Audio Coding 3

Mode extension                 : CM (complete main)

Format settings, Endianness    : Big

Codec ID                       : A_AC3

Duration                       : 11 min

Bit rate mode                  : Constant

Bit rate                       : 192 kb/s

Channel(s)                     : 1 channel

Channel positions              : Front: C

Sampling rate                  : 48.0 kHz

Frame rate                     : 31.250 FPS (1536 spf)

Compression mode               : Lossy

Stream size                    : 15.5 MiB (6%)

Language                       : English

Default                        : Yes

Forced                         : No

Text

ID                             : 3

Format                         : ASS

Codec ID                       : S_TEXT/ASS

Codec ID/Info                  : Advanced Sub Station Alpha

Duration                       : 11 min

Bit rate                       : 11 b/s

Count of elements              : 5

Compression mode               : Lossless

Stream size                    : 978 Bytes (0%)

Default                        : Yes

Forced                         : No

上传的附件:
最新回复 (2)
  • pkl 2018-07-30 04:20
    3
    ddd
  • pkl 2018-07-28 23:46
    2
    ~  感谢分享  ~
返回