[GSCQ]经典动画.红猪.Porco Rosso.1992.JP.BluRay.1920x1038p.x264.DTS-HD.4Audios-KOOK.[中英日双字.国粤日英四语] 9.98GB KOOK 更早 日本 动画

地狱恶魔 2018-07-20 17:54 6780

无广告,无水印,独家中英双字幕
中英双字幕中字来自CMCT,英字来自原盘ORC,
中日双字幕来自诸神の字幕翻译 盘旋的乌鸦 Lyn.幸せ 校对 Lucifer 时间轴 星之雨夜
并带原盘繁体SUP字幕港版和台版
不定时做种,保证出种,请耐心等待.

 

 

※※※※※※※ 影片信息 ※※※※※※※

◎片   名 紅の豚
◎译   名 红猪
◎年   代 1992
◎国   家 日本
◎类   别 爱情 / 动画 / 奇幻 / 冒险
◎语   言 日语/英语/粤语/国语
◎上映日 期 1992-07-18(日本)
◎字   幕 中英双字/中日双字/简体字幕/繁体字幕/英文字幕/日文字幕/港版繁体/台版繁体
◎IMDB 评分  7.8/10 from 57106 users
◎豆瓣 评分  8.4/10 from 98189 users
◎视频尺 寸  1920x1038p
◎片   长 1.33.19
◎导   演 宫崎骏
◎编   剧  宫崎骏
◎主   演 森山周一郎 / 加藤登纪子 / 冈村明美 / 桂三枝 / 上条恒彦

 

 
◎简  介


  罗森是一战中意大利空军的王牌飞行员,但却被施了魔法变了一头猪。虽然变了猪,但罗森还是继续他的老本行,成了一位赏金猎人,专门打击在亚地里亚海空域作恶的空中劫匪。红猪侠一时威名远扬,令劫匪们闻风丧胆。匪徒们为了对付罗森,请来了超级飞行员卡基斯。卡基斯在于罗森对决中趁他发动机故障将其击落。罗森把飞机送到老朋友比克罗处修理时,遇上了比克罗的孙女菲欧。菲欧帮罗森修好了飞机,两人一起再度翱翔蓝天对付空中劫匪。 
  这时,卡基斯出现了,他对菲欧一见钟情。为了争夺菲欧的爱,卡基斯向罗森提出决斗。于是两人再次浴血蓝空。

 

创作背景
《红猪》将背景设定在二十世纪二十年代的意大利,同样是欧洲风味的背景和音乐,为了更加真实地表达出欧洲当地的风土人情,制作委员会曾到过亚得里亚沿海进行实地考查。
   《红猪》的内容是从《宫崎骏杂想笔记》(宫崎骏の雑想ノート)里第14-16篇幅的漫画《飞行艇时代》所改编。原作漫画内容与动画版剧情大多一致,同为描述在亚得里亚海上的一个小岛中住着一位专门打击空贼集团、面孔为猪的飞行好手波鲁克,而波鲁克在故事中间被空贼集团从美国请来的打手卡地士击败,事后波鲁克在修理飞机时认识了机厂老板孙女菲奥、并最后与卡地士再度一决胜负。事后的动画版剧情里添加了在漫画版中未描述的波鲁克过去哀伤的经历,以及新增另一女角色吉娜做为波鲁克的旧识。


获奖记录
1992年第5届
   日刊体育电影大奖
   石原裕次郎奖
   获奖
1992年第47届
   每日电影奖
   音乐奖、动画电影奖
   获奖
1993年
   安锡国际动画影展
   长篇电影奖
   获奖
第9届
   全国兴业环境卫生同业组合连合会
   金总奖、卖座导演奖
   获奖

   文化署优秀电影作品奖
   优秀电影作品
   获奖

   英国《TimeOut》
   前50大动画
   第30名


※※※※※※※ 参数信息 ※※※※※※※

 

General
Unique ID                      : 185735690790837322342481107070639188504 (0x8BBB6492B4AC8EB8BD1139C26638AA18)

Format                         : Matroska
Format version                 : Version 4 / Version 2
File size                      : 9.98 GiB
Duration                       : 1 h 33 min
Overall bit rate               : 15.3 Mb/s
Movie name                     : KOOK
Encoded date                   : UTC 2018-06-23 15:06:40
Writing application            : mkvmerge v9.4.2 ('So High') 64bit
Writing library                : libebml v1.3.4 + libmatroska v1.4.5
Attachments                    : msyhbd.ttf / fzgljw.ttf / fzlbfw.ttf / fzlbjw.ttf / 正式海报.jpg

Video
ID                             : 1
Format                         : AVC
Format/Info                    : Advanced Video Codec
Format profile                 : High@L4.1
Format settings, CABAC         : Yes
Format settings, ReFrames      : 4 frames
Codec ID                       : V_MPEG4/ISO/AVC
Duration                       : 1 h 33 min
Bit rate                       : 12.5 Mb/s
Width                          : 1 920 pixels
Height                         : 1 038 pixels
Display aspect ratio           : 1.85:1
Frame rate mode                : Constant
Frame rate                     : 23.976 (24000/1001) FPS
Color space                    : YUV
Chroma subsampling             : 4:2:0
Bit depth                      : 8 bits
Scan type                      : Progressive
Bits/(Pixel*Frame)             : 0.262
Stream size                    : 8.15 GiB (82%)
Title                          : MPEG-4 x264@High Profile L4.1, 24.000/1.001 fps @ 12500 kbps
Writing library                : x264 core 138 r2358 9e941d1
Encoding settings              : cabac=1 / ref=4 / deblock=1:-3:-3 / analyse=0x3:0x133 / me=umh / subme=11 / psy=1 / psy_rd=0.60:0.00 / mixed_ref=1 / me_range=32 / chroma_me=1 / trellis=2 / 8x8dct=1 / cqm=0 / deadzone=21,11 / fast_pskip=0 / chroma_qp_offset=-2 / threads=24 / lookahead_threads=2 / sliced_threads=0 / nr=0 / decimate=0 / interlaced=0 / bluray_compat=0 / constrained_intra=0 / bframes=6 / b_pyramid=2 / b_adapt=2 / b_bias=0 / direct=3 / weightb=1 / open_gop=0 / weightp=2 / keyint=240 / keyint_min=23 / scenecut=40 / intra_refresh=0 / rc_lookahead=60 / rc=2pass / mbtree=1 / bitrate=12500 / ratetol=1.0 / qcomp=0.60 / qpmin=0 / qpmax=69 / qpstep=4 / cplxblur=20.0 / qblur=0.5 / vbv_maxrate=45000 / vbv_bufsize=45000 / nal_hrd=none / ip_ratio=1.40 / aq=1:0.60
Language                       : English
Default                        : Yes
Forced                         : No

Audio #1
ID                             : 2
Format                         : DTS
Format/Info                    : Digital Theater Systems
Format profile                 : MA / Core
Mode                           : 16
Format settings, Endianness    : Big
Codec ID                       : A_DTS
Duration                       : 1 h 33 min
Bit rate mode                  : Variable / Constant
Bit rate                       : 2 164 kb/s / 1 509 kb/s
Channel(s)                     : 2 channels
Channel positions              :  / Front: L R
Sampling rate                  : 48.0 kHz
Frame rate                     : 93.750 FPS (512 spf)
Bit depth                      : 24 bits
Compression mode               : Lossless / Lossy
Stream size                    : 1.41 GiB (14%)
Title                          : Japanese DTS-HD Master Audio 2.0 @ 2164 kbps  日语
Language                       : Japanese
Default                        : Yes
Forced                         : No

Audio #2
ID                             : 3
Format                         : AC-3
Format/Info                    : Audio Coding 3
Format profile                 : Dolby Digital
Mode extension                 : CM (complete main)
Format settings, Endianness    : Big
Codec ID                       : A_AC3
Duration                       : 1 h 33 min
Bit rate mode                  : Constant
Bit rate                       : 192 kb/s
Channel(s)                     : 2 channels
Channel positions              : Front: L R
Sampling rate                  : 48.0 kHz
Frame rate                     : 31.250 FPS (1536 spf)
Compression mode               : Lossy
Stream size                    : 128 MiB (1%)
Title                          : English Dolby Digital Audio 2.0 @ 192 kbps英语
Language                       : English
Default                        : No
Forced                         : No

Audio #3
ID                             : 4
Format                         : AC-3
Format/Info                    : Audio Coding 3
Mode extension                 : CM (complete main)
Format settings, Endianness    : Big
Codec ID                       : A_AC3
Duration                       : 1 h 33 min
Bit rate mode                  : Constant
Bit rate                       : 192 kb/s
Channel(s)                     : 2 channels
Channel positions              : Front: L R
Sampling rate                  : 48.0 kHz
Frame rate                     : 31.250 FPS (1536 spf)
Compression mode               : Lossy
Stream size                    : 128 MiB (1%)
Title                          : Cantonese Dolby Digital Audio 2.0 @ 192 kbps  粤语
Language                       : Chinese
Default                        : No
Forced                         : No

Audio #4
ID                             : 5
Format                         : AC-3
Format/Info                    : Audio Coding 3
Format profile                 : Dolby Digital
Mode extension                 : CM (complete main)
Format settings, Endianness    : Big
Codec ID                       : A_AC3
Duration                       : 1 h 33 min
Bit rate mode                  : Constant
Bit rate                       : 192 kb/s
Channel(s)                     : 2 channels
Channel positions              : Front: L R
Sampling rate                  : 48.0 kHz
Frame rate                     : 31.250 FPS (1536 spf)
Compression mode               : Lossy
Stream size                    : 128 MiB (1%)
Title                          : Mandarin Dolby Digital Audio 2.0 @ 192 kbps  国语
Language                       : Chinese
Default                        : No
Forced                         : No

Text #1
ID                             : 6
Format                         : ASS
Codec ID                       : S_TEXT/ASS
Codec ID/Info                  : Advanced Sub Station Alpha
Duration                       : 1 h 32 min
Bit rate                       : 231 b/s
Count of elements              : 1113
Compression mode               : Lossless
Stream size                    : 158 KiB (0%)
Title                          : 中英字幕
Language                       : Chinese
Default                        : Yes
Forced                         : No

Text #2
ID                             : 7
Format                         : ASS
Codec ID                       : S_TEXT/ASS
Codec ID/Info                  : Advanced Sub Station Alpha
Duration                       : 1 h 32 min
Bit rate                       : 272 b/s
Count of elements              : 1160
Compression mode               : Lossless
Stream size                    : 186 KiB (0%)
Title                          : 中日字幕
Language                       : Chinese
Default                        : No
Forced                         : No

Text #3
ID                             : 8
Format                         : ASS
Codec ID                       : S_TEXT/ASS
Codec ID/Info                  : Advanced Sub Station Alpha
Duration                       : 1 h 32 min
Bit rate                       : 114 b/s
Count of elements              : 1113
Compression mode               : Lossless
Stream size                    : 77.8 KiB (0%)
Title                          : 简体字幕
Language                       : Chinese
Default                        : No
Forced                         : No

Text #4
ID                             : 9
Format                         : ASS
Codec ID                       : S_TEXT/ASS
Codec ID/Info                  : Advanced Sub Station Alpha
Duration                       : 1 h 32 min
Bit rate                       : 114 b/s
Count of elements              : 1113
Compression mode               : Lossless
Stream size                    : 77.8 KiB (0%)
Title                          : 繁体字幕
Language                       : Chinese
Default                        : No
Forced                         : No

Text #5
ID                             : 10
Format                         : ASS
Codec ID                       : S_TEXT/ASS
Codec ID/Info                  : Advanced Sub Station Alpha
Duration                       : 1 h 29 min
Bit rate                       : 160 b/s
Count of elements              : 1081
Compression mode               : Lossless
Stream size                    : 106 KiB (0%)
Title                          : 英文字幕
Language                       : English
Default                        : No
Forced                         : No

Text #6
ID                             : 11
Format                         : ASS
Codec ID                       : S_TEXT/ASS
Codec ID/Info                  : Advanced Sub Station Alpha
Duration                       : 1 h 32 min
Bit rate                       : 204 b/s
Count of elements              : 1160
Compression mode               : Lossless
Stream size                    : 139 KiB (0%)
Title                          : 日文字幕
Language                       : Japanese
Default                        : No
Forced                         : No

Text #7
ID                             : 12
Format                         : PGS
Muxing mode                    : zlib
Codec ID                       : S_HDMV/PGS
Codec ID/Info                  : Picture based subtitle format used on BDs/HD-DVDs
Duration                       : 1 h 32 min
Bit rate                       : 12.3 kb/s
Count of elements              : 2167
Stream size                    : 8.17 MiB (0%)
Title                          : Chs/SUP  原盘繁体 (HK)
Language                       : Chinese
Default                        : No
Forced                         : No

Text #8
ID                             : 13
Format                         : PGS
Muxing mode                    : zlib
Codec ID                       : S_HDMV/PGS
Codec ID/Info                  : Picture based subtitle format used on BDs/HD-DVDs
Duration                       : 1 h 33 min
Bit rate                       : 13.7 kb/s
Count of elements              : 2134
Stream size                    : 9.12 MiB (0%)
Title                          : Cht/SUP  原盘繁体 (TW)
Language                       : Chinese
Default                        : No
Forced                         : No

Menu
00:00:00.000                   : en:00:00:00.000
00:05:43.176                   : en:00:05:43.176
00:09:16.598                   : en:00:09:16.598
00:15:33.182                   : en:00:15:33.182
00:21:43.552                   : en:00:21:43.552
00:27:14.925                   : en:00:27:14.925
00:31:34.351                   : en:00:31:34.351
00:36:12.128                   : en:00:36:12.128
00:41:49.382                   : en:00:41:49.382
00:44:57.570                   : en:00:44:57.570
00:49:01.605                   : en:00:49:01.605
00:54:11.290                   : en:00:54:11.290
00:58:46.940                   : en:00:58:46.940
01:04:35.705                   : en:01:04:35.705
01:08:55.965                   : en:01:08:55.965
01:14:06.901                   : en:01:14:06.901
01:19:09.161                   : en:01:19:09.161
01:24:18.512                   : en:01:24:18.512
01:29:23.692                   : en:01:29:23.692

 


上传的附件:
最新回复 (2)
  • lingfeihuo 2018-07-23 10:40
    3
    感谢分享好片。
  • sungjeong 2018-07-22 08:44
    2
    不知贵站有没有宫崎骏的全集
返回