[GSCQ]经典动画.原始星球.Fantastic Planet.1973.FR.CC.#820.BluRay.1920x1080p.x264.DTS-HD.2Audios-KOOK.[法英双语.中英双字] 7.71GB KOOK 更早 欧美 动画

地狱恶魔 2018-07-14 00:19 4764

 

※※※※※※※ 影片信息 ※※※※※※※

◎片   名 La planète sauvage
◎译   名 原始星球 / 神奇星球 / 奇幻星球 / Fantastic Planet
◎年   代 1973
◎国   家 法国 / 捷克斯洛伐克
◎类   别 科幻 / 动画
◎语   言 法语/英语
◎上映日 期 1973-05(戛纳电影节) / 1973-12-06(法国)
◎字   幕 中英双字/简体字幕/繁体字幕/英文字幕/CC版英字
◎IMDB 评分  7.8/10 from 17338 users
◎豆瓣 评分  8.6/10 from 8144 users
◎视频尺 寸  1920x1080p
◎片   长 1.12.15
◎导   演 阿内·拉鲁
◎编   剧  Stefan Wul / 洛朗·托坡尔 / 阿内·拉鲁
◎主   演 Jennifer Drake / Eric Baugin / Jean Topart / Jean Valmont / Sylvie Lenoir


Criterion Collection. 标准收藏  #820
 
◎简  介


  茫茫宇宙中一颗无名星球上,生活着体形悬殊的两种生物。占主导地位的是戴格斯人,他们身形巨大,拥有极高的文明和智慧,可以使精神摆脱肉体自在游弋;与之相对的是奥姆斯人,他们具有地球人的外表和身形,社会形态原始落后,在戴格斯人面前有如蝼蚁,于是当仁不让成为这些巨人的奴隶和玩物。奥姆斯人具有顽强的生命力和繁殖能力,他们的数量与日俱增,造成了统治者的困扰。于是,一场针对奥姆斯人的剿灭战随即展开。这本是一场微不足道的如同剿灭害虫的行动,但一个不起眼的奥姆斯人改变了双方的格局。泰尔是被一个戴格斯女孩豢养的奥姆斯男性宠物,他通过主人的教学机器学到了戴格斯人先进的科学文化知识。偶然机会,泰尔逃离戴格斯家庭,成为了领导奥姆斯人对抗统治者的领袖…… 
  本片荣获1973年戛纳电影节特别奖。

 

 

※※※※※※※ 参数信息 ※※※※※※※


General
Unique ID                      : 188919880850526578070504269144498234792 (0x8E20A5438D4793EBA497245B0599E5A8)

Format                         : Matroska
Format version                 : Version 4 / Version 2
File size                      : 7.71 GiB
Duration                       : 1 h 12 min
Overall bit rate mode          : Variable
Overall bit rate               : 15.3 Mb/s
Movie name                     : kook
Encoded date                   : UTC 2018-04-28 11:52:52
Writing application            : mkvmerge v9.4.2 ('So High') 64bit
Writing library                : libebml v1.3.4 + libmatroska v1.4.5
Attachments                    : CC蓝光.jpg / fzgljw.ttf / fzlbfw.ttf / fzlbjw.ttf

Video
ID                             : 1
Format                         : AVC
Format/Info                    : Advanced Video Codec
Format profile                 : High@L4.1
Format settings, CABAC         : Yes
Format settings, ReFrames      : 4 frames
Codec ID                       : V_MPEG4/ISO/AVC
Duration                       : 1 h 12 min
Bit rate mode                  : Variable
Bit rate                       : 14.0 Mb/s
Maximum bit rate               : 30.0 Mb/s
Width                          : 1 920 pixels
Height                         : 1 080 pixels
Display aspect ratio           : 16:9
Frame rate mode                : Constant
Frame rate                     : 23.976 (23976/1000) FPS
Color space                    : YUV
Chroma subsampling             : 4:2:0
Bit depth                      : 8 bits
Scan type                      : Progressive
Bits/(Pixel*Frame)             : 0.282
Stream size                    : 7.07 GiB (92%)
Writing library                : x264 core 148 r2665 a01e339
Encoding settings              : cabac=1 / ref=4 / deblock=1:0:0 / analyse=0x3:0x133 / me=umh / subme=9 / psy=1 / psy_rd=1.00:0.00 / mixed_ref=1 / me_range=16 / chroma_me=1 / trellis=2 / 8x8dct=1 / cqm=0 / deadzone=21,11 / fast_pskip=1 / chroma_qp_offset=-2 / threads=12 / lookahead_threads=1 / sliced_threads=0 / slices=4 / nr=0 / decimate=1 / interlaced=0 / bluray_compat=0 / constrained_intra=0 / bframes=3 / b_pyramid=0 / b_adapt=1 / b_bias=0 / direct=3 / weightb=1 / open_gop=0 / weightp=1 / keyint=24 / keyint_min=1 / scenecut=40 / intra_refresh=0 / rc_lookahead=24 / rc=2pass / mbtree=1 / bitrate=14020 / ratetol=1.0 / qcomp=0.60 / qpmin=0 / qpmax=69 / qpstep=4 / cplxblur=20.0 / qblur=0.5 / vbv_maxrate=30000 / vbv_bufsize=30000 / nal_hrd=vbr / filler=0 / ip_ratio=1.10 / aq=1:1.00
Language                       : French
Default                        : Yes
Forced                         : No

Audio #1
ID                             : 2
Format                         : DTS
Format/Info                    : Digital Theater Systems
Format profile                 : MA / Core
Mode                           : 16
Format settings, Endianness    : Big
Codec ID                       : A_DTS
Duration                       : 1 h 12 min
Bit rate mode                  : Variable / Constant
Bit rate                       : 1 024 kb/s / 768 kb/s
Channel(s)                     : 1 channel
Channel positions              : Front: C
Sampling rate                  : 48.0 kHz
Frame rate                     : 93.750 FPS (512 spf)
Bit depth                      : 24 bits
Compression mode               : Lossless / Lossy
Stream size                    : 537 MiB (7%)
Title                          : 法语
Language                       : French
Default                        : Yes
Forced                         : No

Audio #2
ID                             : 3
Format                         : AC-3
Format/Info                    : Audio Coding 3
Mode extension                 : CM (complete main)
Format settings, Endianness    : Big
Codec ID                       : A_AC3
Duration                       : 1 h 12 min
Bit rate mode                  : Constant
Bit rate                       : 192 kb/s
Channel(s)                     : 1 channel
Channel positions              : Front: C
Sampling rate                  : 48.0 kHz
Frame rate                     : 31.250 FPS (1536 spf)
Compression mode               : Lossy
Stream size                    : 99.2 MiB (1%)
Title                          : 英语
Language                       : English
Default                        : No
Forced                         : No

Text #1
ID                             : 4
Format                         : ASS
Codec ID                       : S_TEXT/ASS
Codec ID/Info                  : Advanced Sub Station Alpha
Duration                       : 1 h 10 min
Bit rate                       : 118 b/s
Count of elements              : 365
Compression mode               : Lossless
Stream size                    : 61.2 KiB (0%)
Title                          : 中英字幕
Language                       : Chinese
Default                        : Yes
Forced                         : No

Text #2
ID                             : 5
Format                         : ASS
Codec ID                       : S_TEXT/ASS
Codec ID/Info                  : Advanced Sub Station Alpha
Duration                       : 1 h 10 min
Bit rate                       : 58 b/s
Count of elements              : 365
Compression mode               : Lossless
Stream size                    : 30.1 KiB (0%)
Title                          : 简体字幕
Language                       : Chinese
Default                        : No
Forced                         : No

Text #3
ID                             : 6
Format                         : ASS
Codec ID                       : S_TEXT/ASS
Codec ID/Info                  : Advanced Sub Station Alpha
Duration                       : 1 h 10 min
Bit rate                       : 58 b/s
Count of elements              : 365
Compression mode               : Lossless
Stream size                    : 30.1 KiB (0%)
Title                          : 繁体字幕
Language                       : Chinese
Default                        : No
Forced                         : No

Text #4
ID                             : 7
Format                         : ASS
Codec ID                       : S_TEXT/ASS
Codec ID/Info                  : Advanced Sub Station Alpha
Duration                       : 1 h 10 min
Bit rate                       : 76 b/s
Count of elements              : 365
Compression mode               : Lossless
Stream size                    : 39.5 KiB (0%)
Title                          : 英文字幕
Language                       : English
Default                        : No
Forced                         : No

Text #5
ID                             : 8
Format                         : PGS
Muxing mode                    : zlib
Codec ID                       : S_HDMV/PGS
Codec ID/Info                  : Picture based subtitle format used on BDs/HD-DVDs
Duration                       : 1 h 9 min
Bit rate                       : 6 934 b/s
Count of elements              : 778
Stream size                    : 3.46 MiB (0%)
Title                          : CC版英字
Language                       : English
Default                        : No
Forced                         : No

Menu
00:00:00.000                   : en:00:00:00.000
00:01:39.724                   : en:00:01:39.724
00:07:48.801                   : en:00:07:48.801
00:11:45.871                   : en:00:11:45.871
00:15:07.406                   : en:00:15:07.406
00:17:52.488                   : en:00:17:52.488
00:19:42.890                   : en:00:19:42.890
00:21:36.670                   : en:00:21:36.670
00:23:52.431                   : en:00:23:52.431
00:26:28.795                   : en:00:26:28.795
00:31:51.618                   : en:00:31:51.618
00:34:07.045                   : en:00:34:07.045
00:38:37.273                   : en:00:38:37.273
00:42:41.976                   : en:00:42:41.976
00:45:42.239                   : en:00:45:42.239
00:52:01.284                   : en:00:52:01.284
00:54:59.671                   : en:00:54:59.671
00:58:56.741                   : en:00:58:56.741
01:04:09.554                   : en:01:04:09.554
01:10:09.622                   : en:01:10:09.622
01:12:15.539                   : en:01:12:15.539


 


上传的附件:
最新回复 (1)
  • yk315 2018-08-04 12:54
    2
    支持你下!老铁!
返回