[GSCQ]经典动画.风之谷.Nausicaa of the Valley of the Wind.1984.JP.BluRay.1920x1036p.x264.AC3.4Audios-KOOK.[国粤日英四语.中日英双字] 13G KOOK 更早 日本 动画

地狱恶魔 2018-07-11 14:57 6600

※※※※※※※ 影片信息 ※※※※※※※

◎片   名 風の谷のナウシカ
◎译   名 风之谷 / 风谷少女 / Kaze no tani no Naushika / Nausica? of the Valley of the Wind
◎年   代 1984
◎国   家 日本
◎类   别 科幻 / 动画 / 奇幻 / 冒险
◎语   言 日语/英语/国语/粤语
◎上映日 期 1992-05(中国大陆) / 1984-03-11(日本)
◎字   幕 中英双字/中日双字/简体字幕/繁体字幕/英文字幕/日文字幕
◎IMDB 评分  8.1/10 from 117059 users
◎豆瓣 评分  8.8/10 from 187532 users
◎视频尺 寸  1920x1036p
◎片   长 1.57.02
◎导   演 宫崎骏
◎编   剧  宫崎骏
◎主   演 岛本须美 / 松田洋治 / 榊原良子 / 辻村真人 / 京田尚子

 

 
◎简  介


  工业文明的高度发展,却最终带来灾难,一场为期7天的虫族毁灭战争摧毁了人类文明。一千年后,工业文明遗留下来的症结仍在困扰这个星球。带有强烈毒性的植物组成了令人望而却步的“腐海”森林,随着时间的推移,腐海有条不紊地向四周蔓延,蚕食周边世界。在一片腐海森林的旁边,居住着一群御风而行的人类。女主角娜乌茜卡和族人依靠海风的力量抵御着有毒孢子的侵蚀,过着平静祥和的生活。 
  直到某一天,战火烧到了这里。西方强国特洛梅意欲重新建立人类霸权,他们计划统一周边诸国,然后向虫族发起总攻。另一方面,一千年前曾主导摧毁人类的上古怪兽“猛怪”重现人间。毁灭战争一触即发,人类的命运将会如何…… 
  本片根据宫崎骏同名漫画改编,并分获1985年罗马奇幻电影节和1985年电影旬报最佳影片奖、1985年每日电影大藤信郎奖。

 

 

※※※※※※※ 参数信息 ※※※※※※※

 

General
Unique ID                      : 245224515512673272805894263594256249562 (0xB87C8614A2A883E38FC2ECFD27A932DA)

Format                         : Matroska
Format version                 : Version 4 / Version 2
File size                      : 13.1 GiB
Duration                       : 1 h 57 min
Overall bit rate               : 16.0 Mb/s
Encoded date                   : UTC 2018-04-10 11:42:07
Writing application            : mkvmerge v9.4.2 ('So High') 64bit
Writing library                : libebml v1.3.4 + libmatroska v1.4.5
Attachments                    : 正式海报.jpg / fzgljw.ttf / fzlbfw.ttf / fzlbjw.ttf

Video
ID                             : 1
Format                         : AVC
Format/Info                    : Advanced Video Codec
Format profile                 : High@L4.1
Format settings, CABAC         : Yes
Format settings, ReFrames      : 4 frames
Codec ID                       : V_MPEG4/ISO/AVC
Duration                       : 1 h 57 min
Bit rate                       : 14.9 Mb/s
Width                          : 1 920 pixels
Height                         : 1 036 pixels
Display aspect ratio           : 1.85:1
Frame rate mode                : Constant
Frame rate                     : 23.976 FPS
Color space                    : YUV
Chroma subsampling             : 4:2:0
Bit depth                      : 8 bits
Scan type                      : Progressive
Bits/(Pixel*Frame)             : 0.312
Stream size                    : 12.2 GiB (93%)
Title                          : Nausicaa.Of.The.Valley.Of.The.Wind.1984
Writing library                : x264 core 102 r1666 d058f37
Encoding settings              : cabac=1 / ref=4 / deblock=1:-3:-3 / analyse=0x3:0x113 / me=umh / subme=9 / psy=1 / psy_rd=1.00:0.00 / mixed_ref=1 / me_range=32 / chroma_me=1 / trellis=2 / 8x8dct=1 / cqm=2 / deadzone=21,11 / fast_pskip=0 / chroma_qp_offset=-1 / threads=12 / sliced_threads=0 / nr=0 / decimate=1 / interlaced=0 / constrained_intra=0 / bframes=6 / b_pyramid=2 / b_adapt=2 / b_bias=0 / direct=3 / weightb=1 / open_gop=0 / weightp=2 / keyint=250 / keyint_min=25 / scenecut=40 / intra_refresh=0 / rc_lookahead=50 / rc=2pass / mbtree=1 / bitrate=14880 / ratetol=2.0 / qcomp=0.70 / qpmin=10 / qpmax=51 / qpstep=4 / cplxblur=20.0 / qblur=0.5 / vbv_maxrate=50000 / vbv_bufsize=50000 / ip_ratio=1.40 / aq=1:1.00 / nal_hrd=none
Language                       : English
Default                        : No
Forced                         : No

Audio #1
ID                             : 2
Format                         : AC-3
Format/Info                    : Audio Coding 3
Mode extension                 : CM (complete main)
Format settings, Endianness    : Big
Codec ID                       : A_AC3
Duration                       : 1 h 57 min
Bit rate mode                  : Constant
Bit rate                       : 448 kb/s
Channel(s)                     : 2 channels
Channel positions              : Front: L R
Sampling rate                  : 48.0 kHz
Frame rate                     : 31.250 FPS (1536 spf)
Compression mode               : Lossy
Stream size                    : 375 MiB (3%)
Title                          : 日语DD2.0 448K JPN
Language                       : Japanese
Default                        : Yes
Forced                         : No

Audio #2
ID                             : 3
Format                         : AC-3
Format/Info                    : Audio Coding 3
Mode extension                 : CM (complete main)
Format settings, Endianness    : Big
Codec ID                       : A_AC3
Duration                       : 1 h 57 min
Bit rate mode                  : Constant
Bit rate                       : 192 kb/s
Channel(s)                     : 2 channels
Channel positions              : Front: L R
Sampling rate                  : 48.0 kHz
Frame rate                     : 31.250 FPS (1536 spf)
Compression mode               : Lossy
Stream size                    : 161 MiB (1%)
Title                          : 国语DD2.0 192K Mandarin
Language                       : Chinese
Default                        : No
Forced                         : No

Audio #3
ID                             : 4
Format                         : AC-3
Format/Info                    : Audio Coding 3
Mode extension                 : CM (complete main)
Format settings, Endianness    : Big
Codec ID                       : A_AC3
Duration                       : 1 h 57 min
Bit rate mode                  : Constant
Bit rate                       : 192 kb/s
Channel(s)                     : 2 channels
Channel positions              : Front: L R
Sampling rate                  : 48.0 kHz
Frame rate                     : 31.250 FPS (1536 spf)
Compression mode               : Lossy
Stream size                    : 161 MiB (1%)
Title                          : 粤语DD2.0 192K Cantonese
Language                       : Chinese
Default                        : No
Forced                         : No

Audio #4
ID                             : 5
Format                         : AC-3
Format/Info                    : Audio Coding 3
Mode extension                 : CM (complete main)
Format settings, Endianness    : Big
Codec ID                       : A_AC3
Duration                       : 1 h 57 min
Bit rate mode                  : Constant
Bit rate                       : 256 kb/s
Channel(s)                     : 2 channels
Channel positions              : Front: L R
Sampling rate                  : 48.0 kHz
Frame rate                     : 31.250 FPS (1536 spf)
Compression mode               : Lossy
Stream size                    : 214 MiB (2%)
Title                          : 英语DD2.0 256K ENG
Language                       : English
Default                        : No
Forced                         : No

Text #1
ID                             : 6
Format                         : ASS
Codec ID                       : S_TEXT/ASS
Codec ID/Info                  : Advanced Sub Station Alpha
Duration                       : 1 h 55 min
Bit rate                       : 187 b/s
Count of elements              : 1176
Compression mode               : Lossless
Stream size                    : 159 KiB (0%)
Title                          : 中英字幕
Language                       : Chinese
Default                        : Yes
Forced                         : No

Text #2
ID                             : 7
Format                         : ASS
Codec ID                       : S_TEXT/ASS
Codec ID/Info                  : Advanced Sub Station Alpha
Duration                       : 1 h 54 min
Bit rate                       : 176 b/s
Count of elements              : 1185
Compression mode               : Lossless
Stream size                    : 148 KiB (0%)
Title                          : 中日字幕
Language                       : Chinese
Default                        : No
Forced                         : No

Text #3
ID                             : 8
Format                         : ASS
Codec ID                       : S_TEXT/ASS
Codec ID/Info                  : Advanced Sub Station Alpha
Duration                       : 1 h 55 min
Bit rate                       : 73 b/s
Count of elements              : 1176
Compression mode               : Lossless
Stream size                    : 62.0 KiB (0%)
Title                          : 简体字幕
Language                       : Chinese
Default                        : No
Forced                         : No

Text #4
ID                             : 9
Format                         : ASS
Codec ID                       : S_TEXT/ASS
Codec ID/Info                  : Advanced Sub Station Alpha
Duration                       : 1 h 55 min
Bit rate                       : 73 b/s
Count of elements              : 1176
Compression mode               : Lossless
Stream size                    : 62.0 KiB (0%)
Title                          : 繁体字幕
Language                       : Chinese
Default                        : No
Forced                         : No

Text #5
ID                             : 10
Format                         : ASS
Codec ID                       : S_TEXT/ASS
Codec ID/Info                  : Advanced Sub Station Alpha
Duration                       : 1 h 54 min
Bit rate                       : 131 b/s
Count of elements              : 1185
Compression mode               : Lossless
Stream size                    : 110 KiB (0%)
Title                          : 日文字幕
Language                       : Japanese
Default                        : No
Forced                         : No

Text #6
ID                             : 11
Format                         : ASS
Codec ID                       : S_TEXT/ASS
Codec ID/Info                  : Advanced Sub Station Alpha
Duration                       : 1 h 56 min
Bit rate                       : 101 b/s
Count of elements              : 1391
Compression mode               : Lossless
Stream size                    : 86.3 KiB (0%)
Title                          : 英文字幕
Language                       : English
Default                        : No
Forced                         : No

 


上传的附件:
最新回复 (1)
  • luilui 2018-07-28 21:22
    2
    谢谢分享,但下载卡住了,可否补种呢?感激!
返回