[GSCQ]经典动画.百变狸猫.Pom Poko.1994.JP.BluRay.1920x1040p.x264.DTS.4Audios-KOOK.[国粤日英四语.中英双字] 12.1GB KOOK 更早 日本 动画

地狱恶魔 2018-07-10 15:23 3888

无广告,无水印,独家中英双字幕

中英双字/简体字幕/繁体字幕/英文字幕  匹配日语及粤语

英轨字幕  匹配英语

台配简体/台配繁体  匹配国语



※※※※※※※ 影片信息 ※※※※※※※


◎片   名 平成狸合戦ぽんぽこ

◎译   名 百变狸猫 / 平成狸合战 / 狸猫物语 / The Raccoon War / Pom Poko

◎年   代 1994

◎国   家 日本

◎类   别 剧情 / 喜剧 / 动画 / 奇幻

◎语   言 日语/英语/国语/粤语

◎上映日 期 1994-07-16(日本)

◎字   幕 中英双字/简体字幕/繁体字幕/英文字幕/英轨字幕/台配简体/台配繁体/

◎IMDB 评分  7.4/10 from 17281 users

◎豆瓣 评分  8.4/10 from 57375 users

◎视频尺 寸  1920x1040p

◎片   长 1.59.11

◎导   演 高畑勋

◎编     剧  高畑勋

◎主   演 古今亭志ん朝 / 三木纪平 / 清川虹子 / 野野村真 / 石田百合子




 

◎简  介



  随着人类文明的发展,城市的规模越来越大,与之相对,青山绿水则迅速减少。东京都提出“多摩新市”的概念,大肆向周边的原始森林扩张。祖辈生长在多摩丘陵的狸猫家族受到巨大冲击,随着树木花草的急剧减少,可供它们生存的食物也开始短缺。最终,鹰之森和玲之森的狸猫发生内战,战况激烈。在火玉婆婆的点拨下,两派狸猫握手言和,转而将主要目标对准破坏森林的人类。为了更好地了解对手,火玉婆婆和龟鹤和尚教授族人已被遗忘很久的变化之术。经过一段时间的艰苦修行,狸猫们终于学会了自由变化。在激进派代表权太的领导下,一部分狸猫向建筑工人发起恐怖袭击,造成多人伤亡。它们的行动虽然取得成效,然而却无法阻挡利益熏心的人类的脚步。 

  森林被一点点蚕食,狸猫家族的命运危在旦夕……






※※※※※※※ 参数信息 ※※※※※※※



General

Unique ID                      : 254908459672640953715699795406886158378 (0xBFC59563EF03E58196EA97E188D2402A)


Format                         : Matroska

Format version                 : Version 4 / Version 2

File size                      : 12.2 GiB

Duration                       : 1 h 59 min

Overall bit rate               : 14.6 Mb/s

Movie name                     : Pom.Poko.1994.JAPANESE.AND.ENGLISH.1080p.BluRay.x264.DTS-FGT

Encoded date                   : UTC 2018-03-25 03:33:35

Writing application            : mkvmerge v9.4.2 ('So High') 64bit

Writing library                : libebml v1.3.4 + libmatroska v1.4.5

Attachments                    : fzqtfw.ttf / fzgljw.ttf / fzqtjw.ttf / 正式海报.jpg / 华文楷体.ttf


Video

ID                             : 1

Format                         : AVC

Format/Info                    : Advanced Video Codec

Format profile                 : High@L4.1

Format settings, CABAC         : Yes

Format settings, ReFrames      : 4 frames

Codec ID                       : V_MPEG4/ISO/AVC

Duration                       : 1 h 59 min

Bit rate                       : 12.5 Mb/s

Width                          : 1 920 pixels

Height                         : 1 040 pixels

Display aspect ratio           : 1.85:1

Frame rate mode                : Constant

Frame rate                     : 23.976 (24000/1001) FPS

Color space                    : YUV

Chroma subsampling             : 4:2:0

Bit depth                      : 8 bits

Scan type                      : Progressive

Bits/(Pixel*Frame)             : 0.262

Stream size                    : 10.4 GiB (85%)

Title                          : kook

Writing library                : x264 core 140 r2377 1ca7bb9

Encoding settings              : cabac=1 / ref=4 / deblock=1:-3:-3 / analyse=0x3:0x133 / me=tesa / subme=10 / psy=1 / psy_rd=0.80:0.00 / mixed_ref=1 / me_range=16 / chroma_me=1 / trellis=2 / 8x8dct=1 / cqm=0 / deadzone=21,11 / fast_pskip=0 / chroma_qp_offset=-2 / threads=12 / lookahead_threads=2 / sliced_threads=0 / nr=0 / decimate=1 / interlaced=0 / bluray_compat=0 / constrained_intra=0 / bframes=9 / b_pyramid=2 / b_adapt=2 / b_bias=0 / direct=3 / weightb=1 / open_gop=0 / weightp=2 / keyint=250 / keyint_min=23 / scenecut=40 / intra_refresh=0 / rc=crf / mbtree=0 / crf=16.8 / qcomp=0.60 / qpmin=0 / qpmax=69 / qpstep=4 / ip_ratio=1.40 / pb_ratio=1.30 / aq=1:0.70

Language                       : Japanese

Default                        : Yes

Forced                         : No

Color range                    : Limited

Matrix coefficients            : BT.709


Audio #1

ID                             : 2

Format                         : AC-3

Format/Info                    : Audio Coding 3

Format profile                 : Dolby Digital

Mode extension                 : CM (complete main)

Format settings, Endianness    : Big

Codec ID                       : A_AC3

Duration                       : 1 h 59 min

Bit rate mode                  : Constant

Bit rate                       : 192 kb/s

Channel(s)                     : 2 channels

Channel positions              : Front: L R

Sampling rate                  : 48.0 kHz

Frame rate                     : 31.250 FPS (1536 spf)

Compression mode               : Lossy

Stream size                    : 164 MiB (1%)

Title                          : 国语

Language                       : Chinese

Default                        : No

Forced                         : No


Audio #2

ID                             : 3

Format                         : AC-3

Format/Info                    : Audio Coding 3

Mode extension                 : CM (complete main)

Format settings, Endianness    : Big

Codec ID                       : A_AC3

Duration                       : 1 h 59 min

Bit rate mode                  : Constant

Bit rate                       : 192 kb/s

Channel(s)                     : 2 channels

Channel positions              : Front: L R

Sampling rate                  : 48.0 kHz

Frame rate                     : 31.250 FPS (1536 spf)

Compression mode               : Lossy

Stream size                    : 164 MiB (1%)

Title                          : 粤语

Language                       : Chinese

Default                        : No

Forced                         : No


Audio #3

ID                             : 4

Format                         : AC-3

Format/Info                    : Audio Coding 3

Format profile                 : Dolby Digital

Mode extension                 : CM (complete main)

Format settings, Endianness    : Big

Codec ID                       : A_AC3

Duration                       : 1 h 59 min

Bit rate mode                  : Constant

Bit rate                       : 192 kb/s

Channel(s)                     : 2 channels

Channel positions              : Front: L R

Sampling rate                  : 48.0 kHz

Frame rate                     : 31.250 FPS (1536 spf)

Compression mode               : Lossy

Delay relative to video        : 83 ms

Stream size                    : 164 MiB (1%)

Title                          : 英语

Language                       : English

Default                        : No

Forced                         : No


Audio #4

ID                             : 5

Format                         : DTS

Format/Info                    : Digital Theater Systems

Mode                           : 16

Format settings, Endianness    : Big

Codec ID                       : A_DTS

Duration                       : 1 h 59 min

Bit rate mode                  : Constant

Bit rate                       : 1 509 kb/s

Channel(s)                     : 2 channels

Channel positions              : Front: L R

Sampling rate                  : 48.0 kHz

Frame rate                     : 93.750 FPS (512 spf)

Bit depth                      : 24 bits

Compression mode               : Lossy

Stream size                    : 1.26 GiB (10%)

Title                          : 日语

Language                       : Japanese

Default                        : Yes

Forced                         : No


Text #1

ID                             : 6

Format                         : ASS

Codec ID                       : S_TEXT/ASS

Codec ID/Info                  : Advanced Sub Station Alpha

Duration                       : 1 h 56 min

Bit rate                       : 277 b/s

Count of elements              : 1643

Compression mode               : Lossless

Stream size                    : 237 KiB (0%)

Title                          : 中英字幕

Language                       : Chinese

Default                        : Yes

Forced                         : No


Text #2

ID                             : 7

Format                         : ASS

Codec ID                       : S_TEXT/ASS

Codec ID/Info                  : Advanced Sub Station Alpha

Duration                       : 1 h 56 min

Bit rate                       : 125 b/s

Count of elements              : 1643

Compression mode               : Lossless

Stream size                    : 107 KiB (0%)

Title                          : 简体字幕

Language                       : Chinese

Default                        : No

Forced                         : No


Text #3

ID                             : 8

Format                         : ASS

Codec ID                       : S_TEXT/ASS

Codec ID/Info                  : Advanced Sub Station Alpha

Duration                       : 1 h 56 min

Bit rate                       : 125 b/s

Count of elements              : 1643

Compression mode               : Lossless

Stream size                    : 107 KiB (0%)

Title                          : 繁体字幕

Language                       : Chinese

Default                        : No

Forced                         : No


Text #4

ID                             : 9

Format                         : ASS

Codec ID                       : S_TEXT/ASS

Codec ID/Info                  : Advanced Sub Station Alpha

Duration                       : 1 h 56 min

Bit rate                       : 193 b/s

Count of elements              : 1643

Compression mode               : Lossless

Stream size                    : 165 KiB (0%)

Title                          : 英文字幕

Language                       : English

Default                        : No

Forced                         : No


Text #5

ID                             : 10

Format                         : UTF-8

Codec ID                       : S_TEXT/UTF8

Codec ID/Info                  : UTF-8 Plain Text

Duration                       : 1 h 58 min

Bit rate                       : 53 b/s

Count of elements              : 1206

Stream size                    : 46.3 KiB (0%)

Title                          : 英轨字幕

Language                       : English

Default                        : No

Forced                         : Yes


Text #6

ID                             : 11

Format                         : UTF-8

Codec ID                       : S_TEXT/UTF8

Codec ID/Info                  : UTF-8 Plain Text

Duration                       : 1 h 55 min

Bit rate                       : 59 b/s

Count of elements              : 1594

Stream size                    : 50.4 KiB (0%)

Title                          : 台配简体

Language                       : Chinese

Default                        : No

Forced                         : No


Text #7

ID                             : 12

Format                         : UTF-8

Codec ID                       : S_TEXT/UTF8

Codec ID/Info                  : UTF-8 Plain Text

Duration                       : 1 h 55 min

Bit rate                       : 59 b/s

Count of elements              : 1594

Stream size                    : 50.4 KiB (0%)

Title                          : 台配繁体

Language                       : Chinese

Default                        : No

Forced                         : No


Menu

00:00:00.000                   : :Chapitre 01

00:00:29.112                   : :Chapitre 02

00:05:19.944                   : :Chapitre 03

00:10:06.480                   : :Chapitre 04

00:14:48.554                   : :Chapitre 05

00:18:43.247                   : :Chapitre 06

00:24:11.908                   : :Chapitre 07

00:28:56.693                   : :Chapitre 08

00:33:02.939                   : :Chapitre 09

00:38:01.445                   : :Chapitre 10

00:43:41.035                   : :Chapitre 11

00:49:48.610                   : :Chapitre 12

00:55:35.415                   : :Chapitre 13

01:00:56.653                   : :Chapitre 14

01:05:40.770                   : :Chapitre 15

01:09:16.193                   : :Chapitre 16

01:16:21.660                   : :Chapitre 17

01:21:44.191                   : :Chapitre 18

01:27:18.358                   : :Chapitre 19

01:33:44.327                   : :Chapitre 20

01:38:34.241                   : :Chapitre 21

01:44:40.732                   : :Chapitre 22

01:50:59.486                   : :Chapitre 23

01:54:44.252                   : :Chapitre 24



上传的附件:
最新回复 (0)
返回