[GSCQ]玛丽和马克思.Mary and Max.2009.AU.BluRay.1920x1044p.x264.DTS.2Audios-KOOK.[英导双轨.中英双字] 6.02GB KOOK 2009 欧美 动画

地狱恶魔 2018-07-09 15:17 3264


※※※※※※※ 影片信息 ※※※※※※※


◎片   名 Mary and Max

◎译   名 玛丽和马克思 / 巧克力情缘(台) / 同是天涯寂寞客 / 玛丽与马克思 / 玛丽和麦克斯 / 玛丽和马克斯 / 玛丽和马科斯

◎年   代 2009

◎国   家 澳大利亚

◎类   别 剧情 / 动画

◎语   言 英语/英语导评

◎上映日 期 2009-01-15(圣丹斯电影节) / 2009-04-09(澳大利亚)

◎字   幕 中英双字/简体字幕/繁体字幕/英文字幕

◎IMDB 评分  8.1/10 from 138288 users

◎豆瓣 评分  8.9/10 from 241816 users

◎视频尺 寸  1920x1044p

◎片   长 1.32.15

◎导   演 亚当·艾略特

◎编     剧  亚当·艾略特

◎主   演 托妮·科莱特 / 菲利普·塞默·霍夫曼 / 巴瑞·哈姆弗莱斯 / 艾瑞克·巴纳 / 贝塔尼·维特莫尔 




 

◎简  介



  1976年,8岁的玛丽·黛西·丁格尔(贝丝妮·惠特摩尔 Bethany Whitmore 配音)是澳大利亚墨尔本的一个小女孩,喜欢动画片“诺布利特”、甜炼乳和巧克力。玛丽的妈妈是个酒鬼,而在茶叶包装厂工作的父亲平日只喜欢制作鸟标本。孤独的玛丽没有朋友,某一天心血来潮给美国纽约市的马克思·杰瑞·霍罗威茨(菲利普·塞默·霍夫曼 Philip Seymour Hoffman 配音)写了一封信询问美国小孩从哪里来,并附上一根樱桃巧克力棒。44岁的马克思患有自闭症及肥胖,碰巧也喜欢看“诺布利特”动画片及吃巧克力。二人的笔友关系从1976年维持到1994年,期间各自经历了许多人生起伏,直到成年的玛丽(托妮·科莱特 Toni Collette 配音)终于来到纽约看望马克思…… 


    本片获2009年法国昂锡国际动画影展最佳动画长片奖,柏林国际电影节水晶熊奖及渥太华国际动画电影节最高奖。




※※※※※※※ 参数信息 ※※※※※※※




General

Unique ID                      : 206006521952396008748437162370846589455 (0x9AFB69B63885AC58939094E448AA820F)


Format                         : Matroska

Format version                 : Version 4 / Version 2

File size                      : 6.03 GiB

Duration                       : 1 h 32 min

Overall bit rate               : 9 352 kb/s

Movie name                     : Mary.and.Max.2009.1080p.BluRay.x264.DTS-FGT

Encoded date                   : UTC 2018-03-10 11:48:51

Writing application            : mkvmerge v9.4.2 ('So High') 64bit

Writing library                : libebml v1.3.4 + libmatroska v1.4.5

Attachments                    : 正式海报  澳大利亚.jpg / STKAITI.TTF


Video

ID                             : 1

Format                         : AVC

Format/Info                    : Advanced Video Codec

Format profile                 : High@L4.1

Format settings, CABAC         : Yes

Format settings, ReFrames      : 4 frames

Codec ID                       : V_MPEG4/ISO/AVC

Duration                       : 1 h 32 min

Bit rate                       : 7 777 kb/s

Width                          : 1 920 pixels

Height                         : 1 044 pixels

Display aspect ratio           : 1.85:1

Frame rate mode                : Constant

Frame rate                     : 23.976 (24000/1001) FPS

Color space                    : YUV

Chroma subsampling             : 4:2:0

Bit depth                      : 8 bits

Scan type                      : Progressive

Bits/(Pixel*Frame)             : 0.162

Stream size                    : 5.01 GiB (83%)

Title                          : kook

Writing library                : x264 core 98 r1649 20cbe10

Encoding settings              : cabac=1 / ref=4 / deblock=1:-3:-3 / analyse=0x3:0x113 / me=tesa / subme=10 / psy=1 / psy_rd=0.40:0.00 / mixed_ref=1 / me_range=16 / chroma_me=1 / trellis=2 / 8x8dct=1 / cqm=0 / deadzone=21,11 / fast_pskip=0 / chroma_qp_offset=-2 / threads=6 / sliced_threads=0 / nr=0 / decimate=0 / interlaced=0 / constrained_intra=0 / bframes=6 / b_pyramid=2 / b_adapt=2 / b_bias=0 / direct=3 / weightb=1 / weightp=2 / keyint=250 / keyint_min=25 / scenecut=40 / intra_refresh=0 / rc=2pass / mbtree=0 / bitrate=7777 / ratetol=1.0 / qcomp=0.60 / qpmin=10 / qpmax=51 / qpstep=4 / cplxblur=20.0 / qblur=0.5 / ip_ratio=1.40 / pb_ratio=1.30 / aq=1:0.80

Language                       : English

Default                        : Yes

Forced                         : No


Audio #1

ID                             : 2

Format                         : DTS

Format/Info                    : Digital Theater Systems

Mode                           : 16

Format settings, Endianness    : Big

Codec ID                       : A_DTS

Duration                       : 1 h 32 min

Bit rate mode                  : Constant

Bit rate                       : 1 510 kb/s

Channel(s)                     : 6 channels

Channel positions              : Front: L C R, Side: L R, LFE

Sampling rate                  : 48.0 kHz

Frame rate                     : 93.750 FPS (512 spf)

Bit depth                      : 24 bits

Compression mode               : Lossy

Stream size                    : 996 MiB (16%)

Title                          : 英语

Language                       : English

Default                        : Yes

Forced                         : No


Audio #2

ID                             : 3

Format                         : AAC

Format/Info                    : Advanced Audio Codec

Format profile                 : LC

Codec ID                       : A_AAC

Duration                       : 1 h 32 min

Bit rate                       : 44.2 kb/s

Channel(s)                     : 1 channel

Channel positions              : Front: C

Sampling rate                  : 48.0 kHz

Frame rate                     : 46.875 FPS (1024 spf)

Compression mode               : Lossy

Stream size                    : 29.2 MiB (0%)

Title                          : 导评Commentary

Language                       : English

Default                        : No

Forced                         : No


Text #1

ID                             : 4

Format                         : ASS

Codec ID                       : S_TEXT/ASS

Codec ID/Info                  : Advanced Sub Station Alpha

Duration                       : 1 h 29 min

Bit rate                       : 226 b/s

Count of elements              : 885

Compression mode               : Lossless

Stream size                    : 148 KiB (0%)

Title                          : 中英字幕

Language                       : Chinese

Default                        : Yes

Forced                         : No


Text #2

ID                             : 5

Format                         : ASS

Codec ID                       : S_TEXT/ASS

Codec ID/Info                  : Advanced Sub Station Alpha

Duration                       : 1 h 29 min

Bit rate                       : 108 b/s

Count of elements              : 885

Compression mode               : Lossless

Stream size                    : 70.7 KiB (0%)

Title                          : 简体字幕

Language                       : Chinese

Default                        : No

Forced                         : No


Text #3

ID                             : 6

Format                         : ASS

Codec ID                       : S_TEXT/ASS

Codec ID/Info                  : Advanced Sub Station Alpha

Duration                       : 1 h 29 min

Bit rate                       : 108 b/s

Count of elements              : 885

Compression mode               : Lossless

Stream size                    : 70.7 KiB (0%)

Title                          : 繁体字幕

Language                       : Chinese

Default                        : No

Forced                         : No


Text #4

ID                             : 7

Format                         : ASS

Codec ID                       : S_TEXT/ASS

Codec ID/Info                  : Advanced Sub Station Alpha

Duration                       : 1 h 29 min

Bit rate                       : 147 b/s

Count of elements              : 885

Compression mode               : Lossless

Stream size                    : 96.3 KiB (0%)

Title                          : 英文字幕

Language                       : English

Default                        : No

Forced                         : No


上传的附件:
最新回复 (0)
返回