动画短片.昼与夜.Day & Night.2009.US.BluRay.1920x1080p.x264.DTS.2Audios-KOOK.[国英双语.中英双字] 406M KOOK 2010 欧美 动画

地狱恶魔 2018-07-08 16:01 3540




※※※※※※※ 影片信息 ※※※※※※※


◎片   名 Day & Night

◎译   名 昼与夜 / 阳光昼与阴郁夜 / 白天与夜晚 / 日与夜 / Day and Night

◎年   代 2010

◎国   家 美国

◎类   别 动画 / 短片

◎语   言 英语

◎上映日 期 2010-06-18

◎字   幕 中英双字/简体字幕/繁体字幕/英文字幕

◎IMDB 评分  8.1/10 from 13289 users

◎豆瓣 评分  8.6/10 from 20800 users

◎视频尺 寸  1920x1080p

◎片   长 0.06.02

◎导   演 泰迪·牛顿

◎编     剧  Jasmine McGlade

◎主   演 




 

◎简  介



  清晨的第一缕阳光照在碧绿的草原上,雄鸡对日长鸣,农场此起彼伏传来家畜的叫声。随着镜头拉远,我们看见这片灿烂光明的三维世界竟然藏在一个二维精灵的体内。他似乎是昼之精灵,他与白天融为一体。迈着轻快的步伐,昼之精灵四处游走,突然看见一个呼呼大睡的家伙。那也是一个二维精灵,其身体里是安静祥和的三维黑夜世界,小羊羔正一只只从围栏处越过。显而易见,这是夜之精灵,他不幸被充满好奇的昼之精灵吵醒,两个小家伙你追我赶,自以为是,互较高下,不肯服输。但在一连串的较量中,他们也似乎发现了对方的优点以及和自己的共通之处…… 

  本片荣获2011年安尼奖最佳动画短片奖、2011年视觉效果工会奖杰出视效短片奖,第83届奥斯卡金像奖 最佳动画短片(提名) 泰迪·牛顿。






※※※※※※※ 参数信息 ※※※※※※※




General

Unique ID                      : 253112383613927374578059595166796545121 (0xBE6BAC00F71D5ED3BA3335277FC4FC61)


Format                         : Matroska

Format version                 : Version 4 / Version 2

File size                      : 406 MiB

Duration                       : 6 min

Overall bit rate               : 9 402 kb/s

Encoded date                   : UTC 2018-03-02 09:04:49

Writing application            : mkvmerge v9.4.2 ('So High') 64bit

Writing library                : libebml v1.3.4 + libmatroska v1.4.5

Attachments                    : STKAITI.TTF / 正式海报.png


Video

ID                             : 1

Format                         : AVC

Format/Info                    : Advanced Video Codec

Format profile                 : High@L4.1

Format settings, CABAC         : Yes

Format settings, ReFrames      : 4 frames

Codec ID                       : V_MPEG4/ISO/AVC

Duration                       : 6 min

Bit rate                       : 7 000 kb/s

Width                          : 1 920 pixels

Height                         : 1 080 pixels

Display aspect ratio           : 16:9

Frame rate mode                : Constant

Frame rate                     : 23.976 FPS

Color space                    : YUV

Chroma subsampling             : 4:2:0

Bit depth                      : 8 bits

Scan type                      : Progressive

Bits/(Pixel*Frame)             : 0.141

Stream size                    : 301 MiB (74%)

Title                          : kook

Writing library                : x264 core 128 r2216 198a7ea

Encoding settings              : cabac=1 / ref=4 / deblock=1:-3:-3 / analyse=0x3:0x113 / me=umh / subme=10 / psy=1 / psy_rd=1.05:0.10 / mixed_ref=1 / me_range=48 / chroma_me=1 / trellis=2 / 8x8dct=1 / cqm=0 / deadzone=21,11 / fast_pskip=0 / chroma_qp_offset=-2 / threads=12 / lookahead_threads=2 / sliced_threads=0 / nr=0 / decimate=1 / interlaced=0 / bluray_compat=0 / constrained_intra=0 / bframes=6 / b_pyramid=2 / b_adapt=2 / b_bias=0 / direct=3 / weightb=1 / open_gop=0 / weightp=2 / keyint=250 / keyint_min=23 / scenecut=40 / intra_refresh=0 / rc_lookahead=60 / rc=2pass / mbtree=0 / bitrate=7000 / ratetol=2.0 / qcomp=0.70 / qpmin=0 / qpmax=69 / qpstep=4 / cplxblur=20.0 / qblur=0.5 / vbv_maxrate=40000 / vbv_bufsize=30000 / nal_hrd=none / ip_ratio=1.40 / pb_ratio=1.30 / aq=2:1.00

Language                       : English

Default                        : Yes

Forced                         : No


Audio #1

ID                             : 2

Format                         : DTS

Format/Info                    : Digital Theater Systems

Mode                           : 16

Format settings, Endianness    : Big

Codec ID                       : A_DTS

Duration                       : 6 min

Bit rate mode                  : Constant

Bit rate                       : 1 509 kb/s

Channel(s)                     : 6 channels

Channel positions              : Front: L C R, Side: L R, LFE

Sampling rate                  : 48.0 kHz

Frame rate                     : 93.750 FPS (512 spf)

Bit depth                      : 24 bits

Compression mode               : Lossy

Stream size                    : 65.2 MiB (16%)

Language                       : English

Default                        : Yes

Forced                         : No


Audio #2

ID                             : 3

Format                         : AC-3

Format/Info                    : Audio Coding 3

Mode extension                 : CM (complete main)

Format settings, Endianness    : Big

Codec ID                       : A_AC3

Duration                       : 6 min

Bit rate mode                  : Constant

Bit rate                       : 640 kb/s

Channel(s)                     : 6 channels

Channel positions              : Front: L C R, Side: L R, LFE

Sampling rate                  : 48.0 kHz

Frame rate                     : 31.250 FPS (1536 spf)

Compression mode               : Lossy

Stream size                    : 27.7 MiB (7%)

Language                       : Chinese

Default                        : No

Forced                         : No


Text #1

ID                             : 4

Format                         : ASS

Codec ID                       : S_TEXT/ASS

Codec ID/Info                  : Advanced Sub Station Alpha

Duration                       : 5 min

Bit rate                       : 76 b/s

Count of elements              : 19

Compression mode               : Lossless

Stream size                    : 3.14 KiB (0%)

Title                          : 中英字幕

Language                       : Chinese

Default                        : Yes

Forced                         : No


Text #2

ID                             : 5

Format                         : ASS

Codec ID                       : S_TEXT/ASS

Codec ID/Info                  : Advanced Sub Station Alpha

Duration                       : 5 min

Bit rate                       : 55 b/s

Count of elements              : 19

Compression mode               : Lossless

Stream size                    : 2.29 KiB (0%)

Title                          : 简体字幕

Language                       : Chinese

Default                        : No

Forced                         : No


Text #3

ID                             : 6

Format                         : ASS

Codec ID                       : S_TEXT/ASS

Codec ID/Info                  : Advanced Sub Station Alpha

Duration                       : 5 min

Bit rate                       : 55 b/s

Count of elements              : 19

Compression mode               : Lossless

Stream size                    : 2.29 KiB (0%)

Title                          : 繁体字幕

Language                       : Chinese

Default                        : No

Forced                         : No


Text #4

ID                             : 7

Format                         : ASS

Codec ID                       : S_TEXT/ASS

Codec ID/Info                  : Advanced Sub Station Alpha

Duration                       : 5 min

Bit rate                       : 61 b/s

Count of elements              : 19

Compression mode               : Lossless

Stream size                    : 2.51 KiB (0%)

Title                          : 英文字幕

Language                       : English

Default                        : No

Forced                         : No


Text #5

ID                             : 8

Format                         : PGS

Muxing mode                    : zlib

Codec ID                       : S_HDMV/PGS

Codec ID/Info                  : Picture based subtitle format used on BDs/HD-DVDs

Duration                       : 1 min

Bit rate                       : 8 341 b/s

Count of elements              : 18

Stream size                    : 72.9 KiB (0%)

Title                          : 原盘中字

Language                       : Chinese

Default                        : No

Forced                         : No


上传的附件:
最新回复 (1)
  • qgqqgq 2018-07-09 12:23
    2
    楼主辛苦了
返回