[GSCQ]触目惊心/咫尺危情 Deceived.1991.1080p.BluRay.x264.DTS-FGT 9.83GB 更早 欧美 惊悚

让子弹飞 2019-03-15 02:09 11820

Deceived.1991.1080p.BluRay.x264.DTS-FGT


◎译  名 触目惊心/咫尺危情

◎片  名 Deceived

◎年  代 1991

◎产  地 美国

◎类  别 惊悚

◎语  言 英语

◎上映日期 1991-09-27

◎IMDb评分  6.1/10 from 5,481 users

◎IMDb链接  http://www.imdb.com/title/tt0101694/

◎豆瓣评分 6.2/10 from 78 users

◎豆瓣链接 https://movie.douban.com/subject/1300194/

◎片  长 104 分钟

◎导  演 Damian Harris

◎主  演 歌蒂·韩 Goldie Hawn

      约翰·赫德 John Heard

      艾什丽·佩顿 Ashley Peldon

      比阿特丽斯·斯特雷特 Beatrice Straight

◎简  介


  艾瑞·戴维斯到饭店和一个未曾谋面的名叫亚当·卢卡斯的男人约会,可是她一直没有等到这个人。她发现对面一个单身男子一边吃饭一边看她,她让侍者问问那个人是不是亚当·卢卡斯,结果那个男子并不是她要等的人,但他们都给对方留下了印象。

  一天,一个顾客到艾瑞的文物修复店办事,而这个顾客就是那天她在饭店看到的男子,他自我介绍叫杰克·桑德斯,是博物馆的文物馆长。他们很快坠入情网,艾瑞成了桑德斯夫人,在一年后还有了女儿玛丽。但快乐平静的生活总是很短暂,博物馆一名资深研究员托马兹在工作室里自杀。而随后杰克因做主买进了价值450万美元的假埃及项链而面临危机。他接到电话要到波士顿开会,但在这期间艾瑞的好友看见杰克在纽约当地的某家饭店出没。艾瑞怀疑自己的丈夫有了外遇,因为除了那家饭店的纪念品外,她还发现丈夫声称是在波士顿为她买的内衣也是在纽约买的。但她质问杰克的时候,他却巧妙地找借口回避了,还因此气愤地离开了家。

  但不久,艾瑞却发现丈夫在一起意外车祸中死亡,玛丽成了没有爸爸的孩子。但她在向社会保险部门领取保险金的时候却发现丈夫一直在用别人的社会保险号交保险金,也就是说她的丈夫并不叫杰克·桑德斯,真正的杰克早在10年前就死了。她意识到自己的婚姻完全是个骗局,但自己的枕边人究竟是谁呢?她先找到了杰克·桑德斯10年前带有照片的死亡报道,然后又和丈夫小时候的影集做了比较。原来丈夫不过是杰克的同班好友,本名叫弗兰克。她进一步找到了杰克和弗兰克的家人,但她对丈夫为何隐瞒真相仍不理解。夜晚,玛丽说自己的屋里有人,艾瑞检查后并未发现什么。但第二天帮她打扫屋子的女佣却死在了屋子里,家里一片狼藉。回到工作室艾瑞接到弗兰克母亲的紧急电话,在弗兰克母亲的家中,她却发现了假死的丈夫,他声称自己是杰克最好的朋友,杰克死后他非常悲痛,于是变成了杰克。一个叫丹尼尔的小时候就认识他的人威胁他掉包真的埃及项链。他只好假死保护她和玛丽,他要求艾瑞找到那个就在家中某处的项链然后带给他。

  在找项链的时候,艾瑞发现了丈夫的另外一张身份证,而上面的名字就是丹尼尔,杀手就是他。他根据丹尼尔的地址找到了他的另外一个家,发现他居然另有妻室,而她再次接到电话要求她把项链交出来。找到项链后,艾瑞在他们的老房子和丈夫展开了生死较量。


Video
ID : 1
Format : AVC
Format/Info : Advanced Video Codec
Format profile : High@L4.1
Format settings : CABAC / 4 Ref Frames
Format settings, CABAC : Yes
Format settings, ReFrames : 4 frames
Codec ID : V_MPEG4/ISO/AVC
Duration : 1 h 48 min
Bit rate : 11.5 Mb/s
Width : 1 920 pixels
Height : 1 040 pixels
Display aspect ratio : 1.85:1
Frame rate mode : Constant
Frame rate : 23.976 (24000/1001) FPS
Color space : YUV
Chroma subsampling : 4:2:0
Bit depth : 8 bits
Scan type : Progressive
Bits/(Pixel*Frame) : 0.240
Stream size : 8.69 GiB (88%)
Writing library : x264 core 155 r2901 7d0ff22
Encoding settings : cabac=1 / ref=4 / deblock=1:-3:-3 / analyse=0x3:0x113 / me=umh / subme=8 / psy=1 / psy_rd=1.00:0.00 / mixed_ref=1 / me_range=16 / chroma_me=1 / trellis=2 / 8x8dct=1 / cqm=0 / deadzone=21,11 / fast_pskip=0 / chroma_qp_offset=-2 / threads=18 / lookahead_threads=3 / sliced_threads=0 / nr=0 / decimate=1 / interlaced=0 / bluray_compat=0 / constrained_intra=0 / bframes=3 / b_pyramid=2 / b_adapt=1 / b_bias=0 / direct=1 / weightb=1 / open_gop=0 / weightp=2 / keyint=250 / keyint_min=23 / scenecut=40 / intra_refresh=0 / rc_lookahead=40 / rc=2pass / mbtree=1 / bitrate=11482 / ratetol=1.0 / qcomp=0.60 / qpmin=0 / qpmax=69 / qpstep=4 / cplxblur=20.0 / qblur=0.5 / ip_ratio=1.40 / aq=1:1.00
Language : English
Default : Yes
Forced : No

Audio
ID : 2
Format : DTS
Format/Info : Digital Theater Systems
Codec ID : A_DTS
Duration : 1 h 48 min
Bit rate mode : Constant
Bit rate : 1 509 kb/s
Channel(s) : 2 channels
Channel layout : L R
Sampling rate : 48.0 kHz
Frame rate : 93.750 FPS (512 SPF)
Bit depth : 16 bits
Compression mode : Lossy
Stream size : 1.14 GiB (12%)
Language : English
Default : Yes
Forced : No

Text #1
ID : 3
Format : UTF-8
Codec ID : S_TEXT/UTF8
Codec ID/Info : UTF-8 Plain Text
Duration : 1 h 41 min
Bit rate : 34 b/s
Count of elements : 818
Stream size : 25.9 KiB (0%)
Language : English
Default : No
Forced : No

Text #2
ID : 4
Format : UTF-8
Codec ID : S_TEXT/UTF8
Codec ID/Info : UTF-8 Plain Text
Duration : 1 h 41 min
Bit rate : 34 b/s
Count of elements : 819
Stream size : 25.9 KiB (0%)
Title : SDH
Language : English
Default : No
Forced : No

Menu
00:00:00.000 : en:00:00:00.000
00:09:43.541 : en:00:09:43.541
00:19:56.529 : en:00:19:56.529
00:35:56.654 : en:00:35:56.654
00:49:20.124 : en:00:49:20.124
01:02:14.773 : en:01:02:14.773
01:15:56.093 : en:01:15:56.093
01:31:23.812 : en:01:31:23.812



上传的附件:
最新回复 (0)
返回