[GSCQ]丈夫妻子小姨 Psyche.59.1964.1080p.BluRay.REMUX.AVC.LPCM.1.0-FGT 23GB 更早 欧美 悬疑

让子弹飞 2019-03-15 02:08 15456

Psyche.59.1964.1080p.BluRay.REMUX.AVC.LPCM.1.0-FGT


◎译  名 丈夫妻子小姨

◎片  名 Psyche 59

◎年  代 1964

◎产  地 英国

◎类  别 剧情 / 悬疑

◎语  言 英语

◎上映日期 1964-04-29(美国)

◎IMDb评分 6.1/10 from 235 users

◎IMDb链接 http://www.imdb.com/title/tt0058499

◎片  长 94分钟

◎导  演 Alexander Singer

◎编  剧 Françoise des Ligneris / Julian Zimet

◎主  演 Curd Jürgens

      Patricia Neal

      Samantha Eggar |

◎简  介  


  In London| the pregnant wife of an industrialist falls down the stairs| loses her sight and has no recollection of the events but suspects that a mentally traumaticexperience prior to the fall caused her accident.



Video
ID : 1
Format : AVC
Format/Info : Advanced Video Codec
Format profile : High@L4.1
Format settings : CABAC / 3 Ref Frames
Format settings, CABAC : Yes
Format settings, ReFrames : 3 frames
Codec ID : V_MPEG4/ISO/AVC
Duration : 1 h 34 min
Bit rate mode : Variable
Bit rate : 35.0 Mb/s
Maximum bit rate : 40.0 Mb/s
Width : 1 920 pixels
Height : 1 080 pixels
Display aspect ratio : 16:9
Frame rate mode : Constant
Frame rate : 23.976 (24000/1001) FPS
Color space : YUV
Chroma subsampling : 4:2:0
Bit depth : 8 bits
Scan type : Progressive
Bits/(Pixel*Frame) : 0.704
Stream size : 22.9 GiB (96%)
Title : Psyche.59.1964.1080p.BluRay.REMUX.AVC.LPCM.1.0-FGT
Writing library : x264 core 148 r2705 3f5ed56
Encoding settings : cabac=1 / ref=4 / deblock=0:-1:-1 / analyse=0x3:0x113 / me=umh / subme=8 / psy=1 / psy_rd=1.00:0.15 / mixed_ref=1 / me_range=16 / chroma_me=1 / trellis=1 / 8x8dct=1 / cqm=0 / deadzone=21,11 / fast_pskip=1 / chroma_qp_offset=-3 / threads=34 / lookahead_threads=5 / sliced_threads=0 / slices=4 / nr=0 / decimate=1 / interlaced=0 / bluray_compat=1 / constrained_intra=0 / bframes=3 / b_pyramid=1 / b_adapt=2 / b_bias=0 / direct=3 / weightb=1 / open_gop=1 / weightp=1 / keyint=24 / keyint_min=1 / scenecut=20 / intra_refresh=0 / rc_lookahead=24 / rc=abr / mbtree=0 / bitrate=35000 / ratetol=1.0 / qcomp=0.60 / qpmin=0 / qpmax=69 / qpstep=4 / vbv_maxrate=40000 / vbv_bufsize=30000 / nal_hrd=vbr / filler=0 / ip_ratio=1.40 / pb_ratio=1.30 / aq=1:0.10
Language : English
Default : No
Forced : No
Color range : Limited
Color primaries : BT.709
Transfer characteristics : BT.709
Matrix coefficients : BT.709

Audio #1
ID : 2
Format : PCM
Format settings : Little / Signed
Codec ID : A_PCM/INT/LIT
Duration : 1 h 34 min
Bit rate mode : Constant
Bit rate : 1 152 kb/s
Sampling rate : 48.0 kHz
Frame rate : 30.000 FPS (1600 SPF)
Bit depth : 24 bits
Stream size : 775 MiB (3%)
Title : Psyche.59.1964.1080p.BluRay.REMUX.AVC.LPCM.1.0-FGT
Language : English
Default : Yes
Forced : No

Audio #2
ID : 3
Format : AC-3
Format/Info : Audio Coding 3
Commercial name : Dolby Digital
Codec ID : A_AC3
Duration : 1 h 34 min
Bit rate mode : Constant
Bit rate : 192 kb/s
Channel(s) : 2 channels
Channel layout : L R
Sampling rate : 48.0 kHz
Frame rate : 31.250 FPS (1536 SPF)
Bit depth : 16 bits
Compression mode : Lossy
Stream size : 129 MiB (1%)
Title : Psyche.59.1964.1080p.BluRay.REMUX.AVC.LPCM.1.0-FGT
Language : English
Service kind : Complete Main
Default : No
Forced : No

Text
ID : 4
Format : PGS
Muxing mode : zlib
Codec ID : S_HDMV/PGS
Codec ID/Info : Picture based subtitle format used on BDs/HD-DVDs
Duration : 1 h 31 min
Bit rate : 30.0 kb/s
Count of elements : 1872
Stream size : 19.7 MiB (0%)
Title : English-PGS
Language : English
Default : Yes
Forced : No

Menu
00:00:00.000 : en:Chapter 01
00:08:07.278 : en:Chapter 02
00:18:39.618 : en:Chapter 03
00:28:20.615 : en:Chapter 04
00:37:27.954 : en:Chapter 05
00:47:36.728 : en:Chapter 06
00:56:51.699 : en:Chapter 07
01:05:59.538 : en:Chapter 08
01:12:44.401 : en:Chapter 09
01:24:56.883 : en:Chapter 10



上传的附件:
最新回复 (1)
  • dszsdyx 2019-03-16 00:51
    2
    怀孕时搁楼上摔下来。然后丧失记忆。眼睛还失明了,以前发生了什么,对她造成如此的刺激。
返回