[GSCQ]死侍2:我爱我家 2018.1080p.BluRay.REMUX.AVC.DTS-HD.MA.7.1-FGT 33GB 2018 欧美 喜剧

缘起白蛇 2019-03-15 02:07 14064

Deadpool.2.2018.Once.Upon.a.Deadpool.1080p.BluRay.REMUX.AVC.DTS-HD.MA.7.1-FGT


◎译  名 小美人鱼 / The Little Mermaid 3D / 小美人鱼3D版 / 小鱼仙

◎片  名 The Little Mermaid

◎年  代 1989

◎产  地 美国

◎类  别 爱情 / 动画 / 歌舞 / 奇幻

◎语  言 英语 / 法语

◎上映日期 1989-11-17(美国) / 2013-09-13(美国) / 2013-09-19(香港)

◎IMDb评分 7.6/10 from 208495 users

◎IMDb链接 http://www.imdb.com/title/tt0097757

◎豆瓣评分 8.3/10 from 50240 users

◎豆瓣链接 https://movie.douban.com/subject/1293120/

◎片  长 83 分钟

◎导  演 罗恩·克莱蒙兹 Ron Clements / 约翰·马斯克 John Musker

◎编  剧 约翰·马斯克 John Musker / 罗恩·克莱蒙兹 Ron Clements

◎主  演 雷内·奥博诺伊斯 Rene Auberjonois

      Christopher Daniel Barnes

      裘蒂·班森 Jodi Benson

◎简  介  


  爱丽儿是海中一条自由自在的小美人鱼,她向往自由,海底的世界似乎她看得有点厌了。这天,她突发奇想,想冲出海底,看看陆上精彩的世界。于是,她就真的冲破了美人鱼的限制,浮上了海面。当她看到了英俊的王子时,她彻底被征服了。为了能和王子相爱,小美人鱼爱丽儿决定以自己美丽的歌声为代价,换取一双平常人类女子的腿。在好朋友的支持和鼓励下,爱丽儿不顾一切向着自己的梦想出发!


◎获奖情况  


  第62届奥斯卡金像奖(1990)

  最佳原创配乐 艾伦·曼肯

  最佳原创歌曲 艾伦·曼肯 / 霍华德·阿什曼

  最佳原创歌曲(提名) 艾伦·曼肯 / 霍华德·阿什曼



Video
ID : 1
Format : AVC
Format/Info : Advanced Video Codec
Format profile : High@L4.1
Format settings : CABAC / 4 Ref Frames
Format settings, CABAC : Yes
Format settings, ReFrames : 4 frames
Codec ID : V_MPEG4/ISO/AVC
Duration : 1 h 57 min
Bit rate mode : Variable
Bit rate : 34.6 Mb/s
Maximum bit rate : 38.0 Mb/s
Width : 1 920 pixels
Height : 1 080 pixels
Display aspect ratio : 16:9
Frame rate mode : Constant
Frame rate : 23.976 (24000/1001) FPS
Color space : YUV
Chroma subsampling : 4:2:0
Bit depth : 8 bits
Scan type : Progressive
Bits/(Pixel*Frame) : 0.697
Stream size : 28.5 GiB (84%)
Title : Deadpool.2.2018.Once.Upon.a.Deadpool.1080p.BluRay.REMUX.AVC.DTS-HD.MA.7.1-FGT
Language : English
Default : No
Forced : No

Audio #1
ID : 2
Format : DTS XLL
Format/Info : Digital Theater Systems
Commercial name : DTS-HD Master Audio
Codec ID : A_DTS
Duration : 1 h 57 min
Bit rate mode : Variable
Bit rate : 4 729 kb/s
Channel(s) : 8 channels
Channel layout : C L R LFE Lb Rb Lss Rss
Sampling rate : 48.0 kHz
Frame rate : 93.750 FPS (512 SPF)
Bit depth : 24 bits
Compression mode : Lossless
Stream size : 3.89 GiB (11%)
Title : Deadpool.2.2018.Once.Upon.a.Deadpool.1080p.BluRay.REMUX.AVC.DTS-HD.MA.7.1-FGT
Language : English
Default : Yes
Forced : No

Audio #2
ID : 3
Format : DTS
Format/Info : Digital Theater Systems
Codec ID : A_DTS
Duration : 1 h 57 min
Bit rate mode : Constant
Bit rate : 1 509 kb/s
Channel(s) : 6 channels
Channel layout : C L R Ls Rs LFE
Sampling rate : 48.0 kHz
Frame rate : 93.750 FPS (512 SPF)
Bit depth : 24 bits
Compression mode : Lossy
Stream size : 1.24 GiB (4%)
Title : Deadpool.2.2018.Once.Upon.a.Deadpool.1080p.BluRay.REMUX.AVC.DTS-HD.MA.7.1-FGT
Language : English
Default : No
Forced : No

Audio #3
ID : 4
Format : AC-3
Format/Info : Audio Coding 3
Commercial name : Dolby Digital
Codec ID : A_AC3
Duration : 1 h 57 min
Bit rate mode : Constant
Bit rate : 448 kb/s
Channel(s) : 6 channels
Channel layout : L R C LFE Ls Rs
Sampling rate : 48.0 kHz
Frame rate : 31.250 FPS (1536 SPF)
Bit depth : 16 bits
Compression mode : Lossy
Stream size : 377 MiB (1%)
Title : Deadpool.2.2018.Once.Upon.a.Deadpool.1080p.BluRay.REMUX.AVC.DTS-HD.MA.7.1-FGT
Language : Spanish
Service kind : Complete Main
Default : No
Forced : No

Text #1
ID : 5
Format : PGS
Muxing mode : zlib
Codec ID : S_HDMV/PGS
Codec ID/Info : Picture based subtitle format used on BDs/HD-DVDs
Duration : 1 h 56 min
Bit rate : 52.3 kb/s
Count of elements : 4626
Stream size : 43.8 MiB (0%)
Title : English-PGS
Language : English
Default : Yes
Forced : No

Text #2
ID : 6
Format : PGS
Muxing mode : zlib
Codec ID : S_HDMV/PGS
Codec ID/Info : Picture based subtitle format used on BDs/HD-DVDs
Duration : 1 h 56 min
Bit rate : 39.7 kb/s
Count of elements : 3468
Stream size : 33.2 MiB (0%)
Title : Spanish-PGS
Language : Spanish
Default : No
Forced : No

Text #3
ID : 7
Format : PGS
Muxing mode : zlib
Codec ID : S_HDMV/PGS
Codec ID/Info : Picture based subtitle format used on BDs/HD-DVDs
Duration : 1 h 54 min
Bit rate : 405 b/s
Count of elements : 42
Stream size : 340 KiB (0%)
Title : Spanish-PGS
Language : Spanish
Default : No
Forced : No

Text #4
ID : 8
Format : PGS
Muxing mode : zlib
Codec ID : S_HDMV/PGS
Codec ID/Info : Picture based subtitle format used on BDs/HD-DVDs
Duration : 1 h 54 min
Bit rate : 405 b/s
Count of elements : 42
Stream size : 340 KiB (0%)
Title : Spanish-FORCED-PGS
Language : Spanish
Default : No
Forced : No

Menu
00:00:00.000 : en:Chapter 01
00:04:07.205 : en:Chapter 02
00:06:13.456 : en:Chapter 03
00:11:31.524 : en:Chapter 04
00:15:12.411 : en:Chapter 05
00:18:35.072 : en:Chapter 06
00:20:51.833 : en:Chapter 07
00:24:33.555 : en:Chapter 08
00:25:54.928 : en:Chapter 09
00:28:19.072 : en:Chapter 10
00:32:40.875 : en:Chapter 11
00:36:23.681 : en:Chapter 12
00:39:48.219 : en:Chapter 13
00:42:27.086 : en:Chapter 14
00:45:29.518 : en:Chapter 15
00:49:05.275 : en:Chapter 16
00:52:20.053 : en:Chapter 17
00:54:50.662 : en:Chapter 18
00:56:33.556 : en:Chapter 19
00:58:21.664 : en:Chapter 20
01:03:27.053 : en:Chapter 21
01:07:02.810 : en:Chapter 22
01:12:23.505 : en:Chapter 23
01:17:15.756 : en:Chapter 24
01:20:19.314 : en:Chapter 25
01:23:45.729 : en:Chapter 26
01:25:43.429 : en:Chapter 27
01:28:30.888 : en:Chapter 28
01:29:58.393 : en:Chapter 29
01:31:31.736 : en:Chapter 30
01:33:04.203 : en:Chapter 31
01:36:22.443 : en:Chapter 32
01:39:00.893 : en:Chapter 33
01:42:45.367 : en:Chapter 34
01:46:28.799 : en:Chapter 35
01:56:50.878 : en:Chapter 36



上传的附件:
最新回复 (1)
  • 佳佳 2019-03-15 21:40
    2
    谢谢分享
返回