[GSCQ]小美人鱼[中字]1989.2160p.UHD.BluRay.X265.10bit.HDR.TrueHD.7.1.Atmos-Whi 10GB 更早 欧美 动画 中文字幕

缘起白蛇 2019-03-15 02:06 11784

The.Little.Mermaid.1989.2160p.UHD.BluRay.X265.10bit.HDR.TrueHD.7.1.Atmos-WhiteRhino


◎译  名 小美人鱼 / The Little Mermaid 3D / 小美人鱼3D版 / 小鱼仙

◎片  名 The Little Mermaid

◎年  代 1989

◎产  地 美国

◎类  别 爱情 / 动画 / 歌舞 / 奇幻

◎语  言 英语 / 法语

◎上映日期 1989-11-17(美国) / 2013-09-13(美国) / 2013-09-19(香港)

◎IMDb评分 7.6/10 from 208495 users

◎IMDb链接 http://www.imdb.com/title/tt0097757

◎豆瓣评分 8.3/10 from 50240 users

◎豆瓣链接 https://movie.douban.com/subject/1293120/

◎片  长 83 分钟

◎导  演 罗恩·克莱蒙兹 Ron Clements / 约翰·马斯克 John Musker

◎编  剧 约翰·马斯克 John Musker / 罗恩·克莱蒙兹 Ron Clements

◎主  演 雷内·奥博诺伊斯 Rene Auberjonois

      Christopher Daniel Barnes

      裘蒂·班森 Jodi Benson

◎简  介  


  爱丽儿是海中一条自由自在的小美人鱼,她向往自由,海底的世界似乎她看得有点厌了。这天,她突发奇想,想冲出海底,看看陆上精彩的世界。于是,她就真的冲破了美人鱼的限制,浮上了海面。当她看到了英俊的王子时,她彻底被征服了。为了能和王子相爱,小美人鱼爱丽儿决定以自己美丽的歌声为代价,换取一双平常人类女子的腿。在好朋友的支持和鼓励下,爱丽儿不顾一切向着自己的梦想出发!


◎获奖情况  


  第62届奥斯卡金像奖(1990)

  最佳原创配乐 艾伦·曼肯

  最佳原创歌曲 艾伦·曼肯 / 霍华德·阿什曼

  最佳原创歌曲(提名) 艾伦·曼肯 / 霍华德·阿什曼


Video
ID : 1
Format : HEVC
Format/Info : High Efficiency Video Coding
Commercial name : HDR10
Format profile : Main 10@L5.1@High
Codec ID : V_MPEGH/ISO/HEVC
Duration : 1 h 22 min
Bit rate : 8 794 kb/s
Width : 3 840 pixels
Height : 2 160 pixels
Display aspect ratio : 16:9
Frame rate mode : Constant
Frame rate : 23.976 (24000/1001) FPS
Color space : YUV
Chroma subsampling : 4:2:0 (Type 2)
Bit depth : 10 bits
Bits/(Pixel*Frame) : 0.044
Stream size : 5.09 GiB (49%)
Writing library : x265 3.0_Aucb3e172a5f51:[Windows][GCC 9.0.1][64 bit] 10bit
Encoding settings : cpuid=1111039 / frame-threads=6 / numa-pools=36 / wpp / no-pmode / no-pme / no-psnr / no-ssim / log-level=2 / input-csp=1 / input-res=3840x2160 / interlace=0 / total-frames=119172 / level-idc=51 / high-tier=1 / uhd-bd=1 / ref=4 / no-allow-non-conformance / repeat-headers / annexb / aud / hrd / info / hash=0 / no-temporal-layers / no-open-gop / min-keyint=1 / keyint=24 / gop-lookahead=0 / bframes=4 / b-adapt=2 / b-pyramid / bframe-bias=0 / rc-lookahead=25 / lookahead-slices=4 / scenecut=40 / radl=0 / no-splice / no-intra-refresh / ctu=64 / min-cu-size=8 / rect / no-amp / max-tu-size=32 / tu-inter-depth=1 / tu-intra-depth=1 / limit-tu=0 / rdoq-level=2 / dynamic-rd=0.00 / no-ssim-rd / signhide / no-tskip / nr-intra=0 / nr-inter=0 / no-constrained-intra / no-strong-intra-smoothing / max-merge=3 / limit-refs=3 / limit-modes / me=3 / subme=3 / merange=57 / temporal-mvp / weightp / no-weightb / no-analyze-src-pics / deblock=-3:-3 / no-sao / no-sao-non-deblock / rd=4 / no-early-skip / rskip / no-fast-intra / no-tskip-fast / no-cu-lossless / no-b-intra / no-splitrd-skip / rdpenalty=0 / psy-rd=2.00 / psy-rdoq=1.00 / no-rd-refine / no-lossless / cbqpoffs=0 / crqpoffs=0 / rc=crf / crf=17.0 / qcomp=0.60 / qpstep=4 / stats-write=0 / stats-read=0 / vbv-maxrate=160000 / vbv-bufsize=160000 / vbv-init=0.9 / crf-max=0.0 / crf-min=0.0 / ipratio=1.40 / pbratio=1.30 / aq-mode=2 / aq-strength=1.00 / cutree / zone-count=0 / no-strict-cbr / qg-size=32 / no-rc-grain / qpmax=69 / qpmin=0 / no-const-vbv / sar=1 / overscan=0 / videoformat=5 / range=0 / colorprim=9 / transfer=16 / colormatrix=9 / chromaloc=1 / chromaloc-top=2 / chromaloc-bottom=2 / display-window=0 / master-display=G(13250,34500)B(7500,3000)R(34000,16000)WP(15635,16450)L(10000000,1) / max-cll=0,0 / min-luma=0 / max-luma=1023 / log2-max-poc-lsb=8 / vui-timing-info / vui-hrd-info / slices=1 / no-opt-qp-pps / no-opt-ref-list-length-pps / no-multi-pass-opt-rps / scenecut-bias=0.05 / no-opt-cu-delta-qp / no-aq-motion / hdr / hdr-opt / no-dhdr10-opt / no-idr-recovery-sei / analysis-reuse-level=5 / scale-factor=0 / refine-intra=0 / refine-inter=0 / refine-mv=0 / refine-ctu-distortion=0 / no-limit-sao / ctu-info=0 / no-lowpass-dct / refine-analysis-type=0 / copy-pic=1 / max-ausize-factor=1.0 / no-dynamic-refine / no-single-sei / no-hevc-aq / no-svt / qp-adaptation-range=1.00
Default : Yes
Forced : No
Color range : Limited
Color primaries : BT.2020
Transfer characteristics : PQ
Matrix coefficients : BT.2020 non-constant
Mastering display color primaries : Display P3
Mastering display luminance : min: 0.0001 cd/m2, max: 1000 cd/m2

Audio #1
ID : 2
Format : MLP FBA 16-ch
Format/Info : Meridian Lossless Packing FBA with 16-channel presentation
Commercial name : Dolby TrueHD with Dolby Atmos
Codec ID : A_TRUEHD
Duration : 1 h 22 min
Bit rate mode : Variable
Bit rate : 8 255 kb/s
Maximum bit rate : 11.7 Mb/s
Channel(s) : 8 channels
Channel layout : L R C LFE Ls Rs Lb Rb
Sampling rate : 48.0 kHz
Frame rate : 1 200.000 FPS (40 SPF)
Compression mode : Lossless
Stream size : 4.78 GiB (46%)
Language : English
Default : Yes
Forced : No
Number of dynamic objects : 13
Bed channel count : 1 channel
Bed channel configuration : LFE

Audio #2
ID : 3
Format : AC-3
Format/Info : Audio Coding 3
Commercial name : Dolby Digital
Codec ID : A_AC3
Duration : 1 h 22 min
Bit rate mode : Constant
Bit rate : 640 kb/s
Channel(s) : 6 channels
Channel layout : L R C LFE Ls Rs
Sampling rate : 48.0 kHz
Frame rate : 31.250 FPS (1536 SPF)
Bit depth : 16 bits
Compression mode : Lossy
Stream size : 379 MiB (4%)
Language : English
Service kind : Complete Main
Default : No
Forced : No

Text #1
ID : 4
Format : PGS
Muxing mode : zlib
Codec ID : S_HDMV/PGS
Codec ID/Info : Picture based subtitle format used on BDs/HD-DVDs
Duration : 1 h 20 min
Bit rate : 41.4 kb/s
Count of elements : 2432
Stream size : 23.8 MiB (0%)
Language : English
Default : No
Forced : No

Text #2
ID : 5
Format : PGS
Muxing mode : zlib
Codec ID : S_HDMV/PGS
Codec ID/Info : Picture based subtitle format used on BDs/HD-DVDs
Duration : 1 h 16 min
Bit rate : 33.3 kb/s
Count of elements : 1840
Stream size : 18.3 MiB (0%)
Language : French
Default : No
Forced : No

Text #3
ID : 6
Format : PGS
Muxing mode : zlib
Codec ID : S_HDMV/PGS
Codec ID/Info : Picture based subtitle format used on BDs/HD-DVDs
Duration : 21 min 46 s
Bit rate : 148 b/s
Count of elements : 4
Stream size : 23.7 KiB (0%)
Language : French
Default : No
Forced : No

Text #4
ID : 7
Format : PGS
Muxing mode : zlib
Codec ID : S_HDMV/PGS
Codec ID/Info : Picture based subtitle format used on BDs/HD-DVDs
Duration : 1 h 16 min
Bit rate : 29.7 kb/s
Count of elements : 1808
Stream size : 16.3 MiB (0%)
Language : Spanish
Default : No
Forced : No

Text #5
ID : 8
Format : PGS
Muxing mode : zlib
Codec ID : S_HDMV/PGS
Codec ID/Info : Picture based subtitle format used on BDs/HD-DVDs
Duration : 21 min 46 s
Bit rate : 105 b/s
Count of elements : 4
Stream size : 16.8 KiB (0%)
Language : Spanish
Default : No
Forced : No

Text #6
ID : 9
Format : PGS
Muxing mode : zlib
Codec ID : S_HDMV/PGS
Codec ID/Info : Picture based subtitle format used on BDs/HD-DVDs
Duration : 1 h 16 min
Bit rate : 26.9 kb/s
Count of elements : 1868
Stream size : 14.8 MiB (0%)
Language : Japanese
Default : No
Forced : No

Text #7
ID : 10
Format : PGS
Muxing mode : zlib
Codec ID : S_HDMV/PGS
Codec ID/Info : Picture based subtitle format used on BDs/HD-DVDs
Duration : 1 h 16 min
Bit rate : 17.5 kb/s
Count of elements : 1770
Stream size : 9.61 MiB (0%)
Language : Korean
Default : No
Forced : No

Text #8
ID : 11
Format : PGS
Muxing mode : zlib
Codec ID : S_HDMV/PGS
Codec ID/Info : Picture based subtitle format used on BDs/HD-DVDs
Duration : 4 s 505 ms
Bit rate : 10.4 kb/s
Count of elements : 2
Stream size : 5.74 KiB (0%)
Language : Korean
Default : No
Forced : No

Text #9
ID : 12
Format : PGS
Muxing mode : zlib
Codec ID : S_HDMV/PGS
Codec ID/Info : Picture based subtitle format used on BDs/HD-DVDs
Duration : 1 h 16 min
Bit rate : 22.8 kb/s
Count of elements : 1926
Stream size : 12.6 MiB (0%)
Language : Chinese
Default : No
Forced : No

Text #10
ID : 13
Format : PGS
Muxing mode : zlib
Codec ID : S_HDMV/PGS
Codec ID/Info : Picture based subtitle format used on BDs/HD-DVDs
Duration : 1 h 17 min
Bit rate : 25.3 kb/s
Count of elements : 2458
Stream size : 14.0 MiB (0%)
Language : Chinese
Default : No
Forced : No

Text #11
ID : 14
Format : PGS
Muxing mode : zlib
Codec ID : S_HDMV/PGS
Codec ID/Info : Picture based subtitle format used on BDs/HD-DVDs
Duration : 1 h 15 min
Bit rate : 24 b/s
Count of elements : 4
Stream size : 13.5 KiB (0%)
Language : Chinese
Default : No
Forced : No

Menu
00:00:00.000 : en:Chapter 01
00:02:18.680 : en:Chapter 02
00:03:48.019 : en:Chapter 03
00:05:52.477 : en:Chapter 04
00:08:56.870 : en:Chapter 05
00:10:49.816 : en:Chapter 06
00:15:02.193 : en:Chapter 07
00:19:05.519 : en:Chapter 08
00:22:19.296 : en:Chapter 09
00:25:16.557 : en:Chapter 10
00:29:07.079 : en:Chapter 11
00:32:56.892 : en:Chapter 12
00:34:22.310 : en:Chapter 13
00:38:49.994 : en:Chapter 14
00:40:01.524 : en:Chapter 15
00:41:39.247 : en:Chapter 16
00:45:43.449 : en:Chapter 17
00:50:57.888 : en:Chapter 18
00:52:23.390 : en:Chapter 19
00:57:22.606 : en:Chapter 20
00:59:36.782 : en:Chapter 21
01:02:30.038 : en:Chapter 22
01:05:46.484 : en:Chapter 23
01:10:05.576 : en:Chapter 24
01:12:49.574 : en:Chapter 25
01:15:33.988 : en:Chapter 26
01:18:20.237 : en:Chapter 27



上传的附件:
最新回复 (0)
返回