[GSCQ]魔女 2018.1080p.BluRay.x264.DTS-FGT 11.4GB 2018 韩国 动作

精灵小王子 2019-03-15 02:03 11004

The.Witch.Part.1.The.Subversion.2018.KOREAN.1080p.BluRay.x264.DTS-FGT


◎译  名 魔女 / The Witch : Part 1. The Subversion / 魔女首部曲:毀坏(港) / 魔女首部曲:诞生(台)

◎片  名 마녀

◎年  代 2018

◎产  地 韩国

◎类  别 动作 / 悬疑

◎语  言 韩语

◎上映日期 2018-06-27(韩国)

◎IMDb评分 6.7/10 from 452 users

◎IMDb链接 http://www.imdb.com/title/tt8574252

◎豆瓣评分 7.2/10 from 12298 users

◎豆瓣链接 https://movie.douban.com/subject/26602900/

◎片  长 125分钟

◎导  演 朴勋政 Hoon-jung Park

◎编  剧 朴勋政 Hoon-jung Park

◎主  演 金多美 Kim Da-mi

      赵敏修 Min-su Jo

      朴熙顺 Hee soon Park

      崔宇植 Woo-Sik Choi

      高敏詩 Min-si Go

      吳美姬  Mi-hee Oh

      崔政宇 Jung-woo Choi

      Daeun

      金秉玉 Byeong-ok Kim

      李柱元 Lee Ju-won

      金河娜 Ha-na Kim

      李基英 Ki-young Lee

      权泰元 Tae-won Kwon

      李时勋  Si-hoon Lee

      白承哲 Seung-chul Baek

      袁民奎 Woo Min-kyu

      金宗勳 Kim Jong-hoon

      徐翰杰 Han-gyeol Seo



◎标  签 韩国 | 动作 | 暴力 | 科幻 | 血腥 | 悬疑 | 2018 | 犯罪


◎简  介  


  该电影讲述了10年前在一起奇怪的事故中独自生还的失忆少女子允,在一对老夫妇的抚养下长大。为了贴补家用,子允参加了某档电视节目,但让她没想到的是,就在节目播出后,开始有各种奇怪的人出现在她面前……


◎获奖情况  


  第39届韩国电影青龙奖(2018)

  最佳新人女演员 金多美

  技术奖(提名)


  第55届韩国电影大钟奖(2018)

  最佳女主角(提名) 金多美

  最佳女配角(提名) 高敏诗

  最佳新人女演员 金多美

  最佳技术奖(提名)


Video
ID : 1
Format : AVC
Format/Info : Advanced Video Codec
Format profile : High@L4.1
Format settings : CABAC / 4 Ref Frames
Format settings, CABAC : Yes
Format settings, ReFrames : 4 frames
Codec ID : V_MPEG4/ISO/AVC
Duration : 2 h 5 min
Bit rate : 11.5 Mb/s
Width : 1 920 pixels
Height : 804 pixels
Display aspect ratio : 2.40:1
Frame rate mode : Constant
Frame rate : 23.976 (24000/1001) FPS
Color space : YUV
Chroma subsampling : 4:2:0
Bit depth : 8 bits
Scan type : Progressive
Bits/(Pixel*Frame) : 0.311
Stream size : 10.1 GiB (88%)
Title : The.Witch.Part.1.The.Subversion.2018.KOREAN.1080p.BluRay.x264.DTS-FGT
Writing library : x264 core 148 r2795M aaa9aa8
Encoding settings : cabac=1 / ref=4 / deblock=1:-2:-2 / analyse=0x3:0x113 / me=umh / subme=9 / psy=1 / psy_rd=1.00:0.15 / mixed_ref=1 / me_range=16 / chroma_me=1 / trellis=2 / 8x8dct=1 / cqm=0 / deadzone=21,11 / fast_pskip=1 / chroma_qp_offset=-3 / threads=72 / lookahead_threads=3 / sliced_threads=0 / nr=0 / decimate=1 / interlaced=0 / bluray_compat=0 / constrained_intra=0 / bframes=3 / b_pyramid=2 / b_adapt=1 / b_bias=0 / direct=3 / weightb=1 / open_gop=0 / weightp=2 / keyint=250 / keyint_min=25 / scenecut=40 / intra_refresh=0 / rc_lookahead=50 / rc=2pass / mbtree=1 / bitrate=11500 / ratetol=1.0 / qcomp=0.60 / qpmin=0 / qpmax=69 / qpstep=4 / cplxblur=20.0 / qblur=0.5 / vbv_maxrate=31250 / vbv_bufsize=31250 / nal_hrd=none / filler=0 / ip_ratio=1.40 / aq=1:1.00
Language : English
Default : Yes
Forced : No

Audio
ID : 2
Format : DTS
Format/Info : Digital Theater Systems
Codec ID : A_DTS
Duration : 2 h 5 min
Bit rate mode : Constant
Bit rate : 1 509 kb/s
Channel(s) : 6 channels
Channel layout : C L R Ls Rs LFE
Sampling rate : 48.0 kHz
Frame rate : 93.750 FPS (512 SPF)
Bit depth : 24 bits
Compression mode : Lossy
Stream size : 1.32 GiB (12%)
Title : The.Witch.Part.1.The.Subversion.2018.KOREAN.1080p.BluRay.x264.DTS-FGT
Language : Korean
Default : No
Forced : No

Text
ID : 3
Format : UTF-8
Codec ID : S_TEXT/UTF8
Codec ID/Info : UTF-8 Plain Text
Duration : 2 h 2 min
Bit rate : 32 b/s
Count of elements : 1085
Stream size : 28.6 KiB (0%)
Language : English
Default : Yes
Forced : Yes

Menu
00:00:00.000 : en:Chapter 01
00:10:41.557 : en:Chapter 02
00:19:01.807 : en:Chapter 03
00:28:10.105 : en:Chapter 04
00:36:00.867 : en:Chapter 05
00:43:33.110 : en:Chapter 06
00:50:44.583 : en:Chapter 07
00:55:10.348 : en:Chapter 08
01:01:18.549 : en:Chapter 09
01:08:49.375 : en:Chapter 10
01:19:40.400 : en:Chapter 11
01:29:09.719 : en:Chapter 12
01:38:15.472 : en:Chapter 13
01:45:25.277 : en:Chapter 14
01:52:23.194 : en:Chapter 15
01:59:22.780 : en:Chapter 16



上传的附件:
最新回复 (0)
返回