[GSCQ]尸控警戒 Redcon-1.2018.1080p.BluRay.REMUX.AVC.DTS-HD.MA.5.1-FGT 25GB 2018 欧美 恐怖

大圣孙悟空 2019-03-15 01:57 5652

Redcon-1.2018.1080p.BluRay.REMUX.AVC.DTS-HD.MA.5.1-FGT


◎译  名 尸控警戒 / 丧尸境界(台)

◎片  名 Redcon-1

◎年  代 2018

◎产  地 英国

◎类  别 动作 / 恐怖

◎语  言 英语

◎上映日期 2018-09-28(英国)

◎IMDb评分 4.9/10 from 516 users

◎IMDb链接 http://www.imdb.com/title/tt2034176

◎豆瓣评分 5.0/10 from 130 users

◎豆瓣链接 https://movie.douban.com/subject/10481121/

◎导  演 Chee Keong Cheung

◎编  剧 Chee Keong Cheung / Steve Horvath / Mark Strange

◎主  演 Oris Erhuero

      Carlos Gallardo

      Mark Strange

      Katarina Leigh Waters

      Martyn Ford

      Joshua Dickinson

      Akira Koieyama

◎简  介  


  一批特种部队士兵被送往一座活死人佔据的城市执行自杀任务,目标是救出一名掌握人类存亡关键的科学家。究竟他们能否顺利完成任务?人类的未来就看这一战!


Video
ID : 1
Format : AVC
Format/Info : Advanced Video Codec
Format profile : High@L4.1
Format settings : CABAC / 4 Ref Frames
Format settings, CABAC : Yes
Format settings, ReFrames : 4 frames
Codec ID : V_MPEG4/ISO/AVC
Duration : 1 h 57 min
Bit rate mode : Variable
Bit rate : 26.0 Mb/s
Maximum bit rate : 37.2 Mb/s
Width : 1 920 pixels
Height : 1 080 pixels
Display aspect ratio : 16:9
Frame rate mode : Constant
Frame rate : 24.000 FPS
Standard : NTSC
Color space : YUV
Chroma subsampling : 4:2:0
Bit depth : 8 bits
Scan type : Progressive
Bits/(Pixel*Frame) : 0.523
Stream size : 21.4 GiB (84%)
Title : Redcon-1.2018.1080p.BluRay.REMUX.AVC.DTS-HD.MA.5.1-FGT
Language : English
Default : No
Forced : No
Color range : Limited
Color primaries : BT.709
Transfer characteristics : BT.709
Matrix coefficients : BT.709

Audio #1
ID : 2
Format : DTS XLL
Format/Info : Digital Theater Systems
Commercial name : DTS-HD Master Audio
Codec ID : A_DTS
Duration : 1 h 57 min
Bit rate mode : Variable
Bit rate : 2 027 kb/s
Channel(s) : 6 channels
Channel layout : C L R Ls Rs LFE
Sampling rate : 48.0 kHz
Frame rate : 93.750 FPS (512 SPF)
Bit depth : 16 bits
Compression mode : Lossless
Stream size : 1.66 GiB (7%)
Title : Redcon-1.2018.1080p.BluRay.REMUX.AVC.DTS-HD.MA.5.1-FGT
Language : English
Default : Yes
Forced : No

Audio #2
ID : 3
Format : DTS
Format/Info : Digital Theater Systems
Codec ID : A_DTS
Duration : 1 h 57 min
Bit rate mode : Constant
Bit rate : 1 509 kb/s
Channel(s) : 6 channels
Channel layout : C L R Ls Rs LFE
Sampling rate : 48.0 kHz
Frame rate : 93.750 FPS (512 SPF)
Bit depth : 16 bits
Compression mode : Lossy
Stream size : 1.24 GiB (5%)
Title : Redcon-1.2018.1080p.BluRay.REMUX.AVC.DTS-HD.MA.5.1-FGT
Language : English
Default : No
Forced : No

Audio #3
ID : 4
Format : PCM
Format settings : Little / Signed
Codec ID : A_PCM/INT/LIT
Duration : 1 h 57 min
Bit rate mode : Constant
Bit rate : 1 536 kb/s
Channel(s) : 2 channels
Sampling rate : 48.0 kHz
Frame rate : 30.000 FPS (1600 SPF)
Bit depth : 16 bits
Stream size : 1.26 GiB (5%)
Title : Redcon-1.2018.1080p.BluRay.REMUX.AVC.DTS-HD.MA.5.1-FGT
Language : English
Default : No
Forced : No

Text #1
ID : 5
Format : UTF-8
Codec ID : S_TEXT/UTF8
Codec ID/Info : UTF-8 Plain Text
Duration : 1 h 52 min
Bit rate : 32 b/s
Count of elements : 1051
Stream size : 27.3 KiB (0%)
Title : English-SRT
Language : English
Default : Yes
Forced : No

Text #2
ID : 6
Format : PGS
Muxing mode : zlib
Codec ID : S_HDMV/PGS
Codec ID/Info : Picture based subtitle format used on BDs/HD-DVDs
Duration : 1 h 56 min
Bit rate : 24.4 kb/s
Count of elements : 2269
Stream size : 20.3 MiB (0%)
Title : English-PGS
Language : English
Default : No
Forced : No

Menu
00:00:00.000 : en:Chapter 01
00:11:56.750 : en:Chapter 02
00:32:54.666 : en:Chapter 03
00:50:05.625 : en:Chapter 04
01:04:56.625 : en:Chapter 05
01:25:07.666 : en:Chapter 06
01:38:19.083 : en:Chapter 07
01:51:56.958 : en:Chapter 08



上传的附件:
最新回复 (0)
返回