[GSCQ]泰山的三大挑战 1963.1080p.BluRay.REMUX.AVC.DTS-HD.MA.2.0-FGT 26GB 更早 欧美 动作

大圣孙悟空 2019-03-15 01:55 6060

Tarzans.Three.Challenges.1963.1080p.BluRay.REMUX.AVC.DTS-HD.MA.2.0-FGT


◎译  名 泰山的三大挑战

◎片  名 Tarzan's Three Challenges

◎年  代 1963

◎产  地 英国 / 美国

◎语  言 英语

◎上映日期 1963-01-29(西德)

◎IMDb评分 5.9/10 from 353 users

◎IMDb链接 http://www.imdb.com/title/tt0057560

◎导  演 Robert Day

◎主  演 Jock Mahoney

◎简  介  


  The spiritual leader of an oriental country is dying. The leader's evil brother Khan is plotting to prevent Kashi| the youthful heir| from assuming his rightfulposition. Tarzan is summoned to protect Kashi and| in doing so| he must face Khan in three tests of strength. The final test is a sword fight which takes place on awide-mesh net stretched over cauldrons of boiling oil. Jeweled elephants lead grand processions| and a thousand girls perform the "dance of the candles". A babyelephant named Hungry replaces Cheetah in the humor role.


Video
ID : 1
Format : AVC
Format/Info : Advanced Video Codec
Format profile : High@L4.1
Format settings : CABAC / 4 Ref Frames
Format settings, CABAC : Yes
Format settings, ReFrames : 4 frames
Codec ID : V_MPEG4/ISO/AVC
Duration : 1 h 40 min
Bit rate mode : Variable
Bit rate : 34.9 Mb/s
Maximum bit rate : 38.0 Mb/s
Width : 1 920 pixels
Height : 1 080 pixels
Display aspect ratio : 16:9
Frame rate mode : Constant
Frame rate : 23.976 (24000/1001) FPS
Color space : YUV
Chroma subsampling : 4:2:0
Bit depth : 8 bits
Scan type : Progressive
Bits/(Pixel*Frame) : 0.702
Stream size : 24.4 GiB (91%)
Title : Tarzans.Three.Challenges.1963.1080p.Bluray.REMUX.AVC.DTS-HD.MA.2.0-FGT
Language : English
Default : No
Forced : No

Audio #1
ID : 2
Format : DTS XLL
Format/Info : Digital Theater Systems
Commercial name : DTS-HD Master Audio
Codec ID : A_DTS
Duration : 1 h 40 min
Bit rate mode : Variable
Bit rate : 2 005 kb/s
Channel(s) : 2 channels
Channel layout : L R
Sampling rate : 48.0 kHz
Frame rate : 93.750 FPS (512 SPF)
Bit depth : 24 bits
Compression mode : Lossless
Stream size : 1.40 GiB (5%)
Title : Tarzans.Three.Challenges.1963.1080p.Bluray.REMUX.AVC.DTS-HD.MA.2.0-FGT
Language : English
Default : Yes
Forced : No

Audio #2
ID : 3
Format : DTS
Format/Info : Digital Theater Systems
Codec ID : A_DTS
Duration : 1 h 40 min
Bit rate mode : Constant
Bit rate : 1 509 kb/s
Channel(s) : 2 channels
Channel layout : L R
Sampling rate : 48.0 kHz
Frame rate : 93.750 FPS (512 SPF)
Bit depth : 24 bits
Compression mode : Lossy
Stream size : 1.05 GiB (4%)
Title : Tarzans.Three.Challenges.1963.1080p.Bluray.REMUX.AVC.DTS-HD.MA.2.0-FGT
Language : English
Default : No
Forced : No

Text
ID : 4
Format : PGS
Muxing mode : zlib
Codec ID : S_HDMV/PGS
Codec ID/Info : Picture based subtitle format used on BDs/HD-DVDs
Duration : 1 h 39 min
Bit rate : 38.4 kb/s
Count of elements : 1770
Stream size : 27.3 MiB (0%)
Title : English-PGS
Language : English
Default : Yes
Forced : No

Menu
00:00:00.000 : en:Chapter 01
00:02:13.049 : en:Chapter 02
00:03:18.615 : en:Chapter 03
00:04:43.366 : en:Chapter 04
00:10:05.146 : en:Chapter 05
00:14:35.916 : en:Chapter 06
00:17:01.353 : en:Chapter 07
00:20:33.023 : en:Chapter 08
00:23:58.395 : en:Chapter 09
00:29:35.148 : en:Chapter 10
00:34:21.059 : en:Chapter 11
00:39:27.531 : en:Chapter 12
00:43:42.828 : en:Chapter 13
00:48:49.968 : en:Chapter 14
00:53:35.212 : en:Chapter 15
00:56:54.953 : en:Chapter 16
01:02:10.059 : en:Chapter 17
01:05:12.825 : en:Chapter 18
01:09:29.206 : en:Chapter 19
01:11:46.468 : en:Chapter 20
01:15:29.066 : en:Chapter 21
01:20:18.438 : en:Chapter 22
01:23:16.199 : en:Chapter 23
01:25:51.980 : en:Chapter 24
01:29:45.922 : en:Chapter 25
01:33:54.170 : en:Chapter 26
01:38:19.018 : en:Chapter 27
01:39:41.684 : en:Chapter 28
01:39:59.702 : en:Chapter 29



上传的附件:
最新回复 (0)
返回