[GSCQ][夜班经理 The Night Manager 第一季][全06集打包][英语英字][MKV][1080P] 2016 美国 惊悚 打包

love2001 2019-03-15 01:43 29292


◎译  名 夜班经理 第一季

◎片  名 The Night Manager Season 1

◎年  代 2016

◎国  家 英国/美国

◎类  别 剧情/动作/惊悚

◎语  言 英语

◎上映日期 2016-02-21(英国)/2016-04-19(美国)

◎IMDb评分  8.6/10 from 3,998 users

◎IMDb链接  http://www.imdb.com/title/tt1399664/

◎豆瓣评分 8.1/10 from 3,788 users

◎豆瓣链接 http://movie.douban.com/subject/3610655/

◎集  数 6

◎片  长 60分钟

◎导  演 苏珊娜·比尔 Susanne Bier

◎主  演 汤姆·希德勒斯顿 Tom Hiddleston

      休·劳瑞 Hugh Laurie

      奥利维娅·科尔曼 Olivia Colman

      汤姆·霍兰德 Tom Hollander

      伊丽莎白·德比茨基 Elizabeth Debicki

      迈克尔·纳尔多内 Michael Nardone

      阿利斯泰·皮垂 Alistair Petrie

      道格拉斯·霍奇斯 Douglas Hodges

      安东尼奥·德拉·托雷 Antonio de la Torre

      大卫·哈雷伍德 David Harewood

      托比亚斯·门基斯 Tobias Menzies

      拉塞尔·托维 Russell Tovey

      玛塔·托尔内 Marta Torné

      Hovik Keuchkerian

      凯瑟琳·凯丽 Katherine Kelly

      内尔·莫里西 Neil Morrissey


◎简  介


  这部1993年小说改编的现代版犯罪剧是融合了爱、迷失、报仇等主题的复杂故事,抖森饰演的退役英国士兵Jonathan Pine受雇于Colman饰演的情报人员Burr,调查Whitehall and Washington酒店的地下情报网络和军火交易。为了渗透到豪斯叔饰演的军火商Richard Onslow Rope和女友Debiki饰演的Jed以及助理Hollander饰演的Corcoran内部,他必须让自己也变成罪犯。


Video
ID : 1
Format : HEVC
Format/Info : High Efficiency Video Coding
Format profile : Main@L4@Main
Codec ID : V_MPEGH/ISO/HEVC
Duration : 1 h 2 min
Bit rate : 8 865 kb/s
Width : 1 920 pixels
Height : 1 080 pixels
Display aspect ratio : 16:9
Frame rate mode : Constant
Frame rate : 23.976 (24000/1001) FPS
Standard : NTSC
Color space : YUV
Chroma subsampling : 4:2:0
Bit depth : 8 bits
Bits/(Pixel*Frame) : 0.178
Stream size : 3.85 GiB (93%)
Writing library : x265 0.0:[Linux][GCC 4.8.2][64 bit] 8bit+10bit+12bit
Encoding settings : cpuid=1173503 / frame-threads=1 / wpp / no-pmode / no-pme / psnr / ssim / log-level=2 / csvfn=/apollo/env/YoshiEncodingWorkflowActivitiesLinuxEncoding/var/tmp/881607215/57978086-9ef7-4c2f-9b81-ce0021e64850/b22f6957-9acc-4dfb-b2f1-8146959f4f06_video_1080p_9000kbps.csv / csv-log-level=2 / input-csp=1 / input-res=1920x1080 / interlace=0 / total-frames=0 / level-idc=40 / high-tier=1 / uhd-bd=0 / ref=5 / no-allow-non-conformance / no-repeat-headers / annexb / no-aud / no-hrd / info / hash=0 / no-temporal-layers / no-open-gop / min-keyint=61 / keyint=120 / bframes=5 / b-adapt=2 / b-pyramid / bframe-bias=0 / rc-lookahead=120 / lookahead-slices=0 / scenecut=0 / no-intra-refresh / ctu=64 / min-cu-size=8 / rect / no-amp / max-tu-size=32 / tu-inter-depth=1 / tu-intra-depth=1 / limit-tu=0 / rdoq-level=2 / dynamic-rd=0.00 / no-ssim-rd / signhide / no-tskip / nr-intra=0 / nr-inter=200 / no-constrained-intra / strong-intra-smoothing / max-merge=3 / limit-refs=3 / limit-modes / me=3 / subme=3 / merange=57 / temporal-mvp / weightp / no-weightb / no-analyze-src-pics / deblock=0:0 / sao / no-sao-non-deblock / rd=4 / no-early-skip / rskip / no-fast-intra / no-tskip-fast / no-cu-lossless / no-b-intra / rdpenalty=0 / psy-rd=2.00 / psy-rdoq=1.00 / no-rd-refine / analysis-reuse-mode=0 / no-lossless / cbqpoffs=0 / crqpoffs=0 / rc=crf / crf=21.5 / qcomp=0.60 / qpstep=4 / stats-write=0 / stats-read=0 / vbv-maxrate=9000 / vbv-bufsize=12000 / vbv-init=0.9 / crf-max=0.0 / crf-min=0.0 / ipratio=1.40 / pbratio=1.30 / aq-mode=3 / aq-strength=2.00 / cutree / zone-count=0 / no-strict-cbr / qg-size=32 / no-rc-grain / qpmax=69 / qpmin=0 / no-const-vbv / sar=1 / overscan=0 / videoformat=2 / range=0 / colorprim=1 / transfer=1 / colormatrix=1 / chromaloc=0 / display-window=0 / max-cll=0,0 / min-luma=0 / max-luma=255 / log2-max-poc-lsb=8 / vui-timing-info / vui-hrd-info / slices=1 / opt-qp-pps / opt-ref-list-length-pps / no-multi-pass-opt-rps / scenecut-bias=0.05 / no-opt-cu-delta-qp / no-aq-motion / no-hdr / no-hdr-opt / no-dhdr10-opt / analysis-reuse-level=5 / scale-factor=0 / refine-intra=0 / refine-inter=0 / refine-mv=0 / no-limit-sao / ctu-info=0
Default : Yes
Forced : No
Color range : Limited
Color primaries : BT.709
Transfer characteristics : BT.709
Matrix coefficients : BT.709

Audio
ID : 2
Format : E-AC-3
Format/Info : Enhanced AC-3
Commercial name : Dolby Digital Plus
Codec ID : A_EAC3
Duration : 1 h 2 min
Bit rate mode : Constant
Bit rate : 640 kb/s
Channel(s) : 6 channels
Channel layout : L R C LFE Ls Rs
Sampling rate : 48.0 kHz
Frame rate : 31.250 FPS (1536 SPF)
Compression mode : Lossy
Stream size : 284 MiB (7%)
Language : English
Service kind : Complete Main
Default : Yes
Forced : No

Text
ID : 3
Format : UTF-8
Codec ID : S_TEXT/UTF8
Codec ID/Info : UTF-8 Plain Text
Duration : 1 h 1 min
Bit rate : 53 b/s
Count of elements : 879
Stream size : 24.3 KiB (0%)
Language : English
Default : No
Forced : No



上传的附件:
最新回复 (0)
返回