[GSCQ][遗世者/守望尘世 The Leftovers 第一至二季][全02季打包][英语英字][MKV][1080P] 2014 美国 悬疑 打包

love2001 2019-03-15 01:41 25440


◎译  名 守望尘世 / 末世余生(台) / 遗世者

◎片  名 The Leftovers

◎年  代 2014

◎产  地 美国

◎类  别 剧情 / 悬疑 / 奇幻

◎语  言 英语

◎上映日期 2014-06-29(美国)

◎IMDb评分 8.3/10 from 62975 users

◎IMDb链接 http://www.imdb.com/title/tt2699128

◎豆瓣评分 8.0/10 from 3303 users

◎豆瓣链接 https://movie.douban.com/subject/23774557/

◎片  长 60分钟

◎导  演 彼得·博格 Peter Berg / 基斯·戈登 Keith Gordon / 卡尔·弗兰克林 Carl Franklin / 莱斯利·林卡·格拉特 Lesli Linka Glatter / 咪咪·莱德 Mimi Leder / 米歇尔·麦克拉伦 Michelle MacLaren / 丹尼尔·沙克海姆 Daniel Sackheim

◎编  剧 达蒙·林德洛夫 Damon Lindelof / 汤姆·佩罗塔 Tom Perrotta / Kath Lingenfelter / Jacqueline Hoyt / Elizabeth Peterson / Curtis Gwinn / Carlito Rodriguez

◎主  演 贾斯汀·塞洛克斯 Justin Theroux

      艾米·布伦尼曼 Amy Brenneman

      克里斯托弗·埃克莱斯顿 Christopher Eccleston

      凯莉·库恩 Carrie Coon

      丽芙·泰勒 Liv Tyler

      玛格丽特 库利 Margaret Qualley

      克里斯·泽尔卡 Chris Zylka

      阿曼达·沃伦 Amanda Warren

      安·唐德 Ann Dowd

      Annie Q.

      艾米丽·梅德 Emily Meade

      迈克尔·加斯顿 Michael Gaston

      马克斯·卡维尔 Max Carver

      查理·卡维尔 Charlie Carver

      马塞林·休格特 Marceline Hugot

      佩特逊·约瑟夫 Paterson Joseph



◎标  签 美剧 | HBO | 宗教 | 科幻 | 美国 | 2014 | 剧情 | 看过的电视剧


◎简  介  


  该剧由前《迷失》(Lost)的核心制片人Damon Lindelof监制,它有强烈的《迷失》味道。

Damon Lindelof强调该剧不会有「非关键集」。换成我们能听懂的话,那就是「没有水集」。

该剧根据Tom Perrotta的同名畅销小说改编,Tom Perrotta将亲自担任该剧的制片人。

根据基督教的千年教义,当基督再临人间时,最忠实的信徒将「被提升天」。在本剧的设定中,「升天」事件已经发生,全世界有2%的人口「失踪」了,其他未被选中的信徒仍然留在尘世。当该剧开始时,「升天」事件已经过去三年时间。

剧中人不会调查那些「升天」的人究竟发生了什么事,他们只想知道他们自己该如何继续生活。

剧中会有一些书中没有的角色(所有改编剧都如此)。

Damon Lindelof表示,这是一部宗教色彩非常浓厚的剧集,并非适合每一个人。


◎获奖情况  


  第5届美国评论家选择电视奖(2015)

  剧情类最佳男配角(提名) 克里斯托弗·埃克莱斯顿

  剧情类最佳女配角(提名) 凯莉·库恩



Video
ID : 1
Format : HEVC
Format/Info : High Efficiency Video Coding
Format profile : Main@L4@Main
Codec ID : V_MPEGH/ISO/HEVC
Duration : 1 h 13 min
Bit rate : 8 715 kb/s
Width : 1 920 pixels
Height : 1 080 pixels
Display aspect ratio : 16:9
Frame rate mode : Constant
Frame rate : 23.976 (24000/1001) FPS
Standard : NTSC
Color space : YUV
Chroma subsampling : 4:2:0
Bit depth : 8 bits
Bits/(Pixel*Frame) : 0.175
Stream size : 4.45 GiB (93%)
Default : Yes
Forced : No
Color range : Limited
Color primaries : BT.709
Transfer characteristics : BT.709
Matrix coefficients : BT.709

Audio
ID : 2
Format : E-AC-3
Format/Info : Enhanced AC-3
Commercial name : Dolby Digital Plus
Codec ID : A_EAC3
Duration : 1 h 13 min
Bit rate mode : Constant
Bit rate : 640 kb/s
Channel(s) : 6 channels
Channel layout : L R C LFE Ls Rs
Sampling rate : 48.0 kHz
Frame rate : 31.250 FPS (1536 SPF)
Compression mode : Lossy
Stream size : 335 MiB (7%)
Language : English
Service kind : Complete Main
Default : Yes
Forced : No

Text
ID : 3
Format : UTF-8
Codec ID : S_TEXT/UTF8
Codec ID/Info : UTF-8 Plain Text
Duration : 1 h 10 min
Bit rate : 37 b/s
Count of elements : 736
Stream size : 19.7 KiB (0%)
Language : English
Default : No
Forced : No



上传的附件:
最新回复 (0)
返回