[GSCQ]糖果人3 亡命日 1999.1080p.BluRay.REMUX.AVC.DTS-HD.MA.2.0-FGT 18.9GB 更早 欧美 惊悚

DarkMeridian 2019-03-15 01:38 4704

Candyman.Day.of.the.Dead.1999.1080p.BluRay.REMUX.AVC.DTS-HD.MA.2.0-FGT


◎译  名 糖果人3 亡命日

◎片  名 Candyman: Day of the Dead

◎年  代 1999

◎产  地 美国

◎类  别 惊悚 / 恐怖

◎语  言 英语

◎上映日期 1999-07-09

◎IMDb评分 4.1/10 from 4242 users

◎IMDb链接 http://www.imdb.com/title/tt0165662

◎豆瓣评分 4.9/10 from 81 users

◎豆瓣链接 https://movie.douban.com/subject/1302735/

◎片  长 93分钟

◎导  演 Turi Meyer

◎编  剧 Turi Meyer

◎主  演 托尼·托德 Tony Todd

      Donna D'Errico

      Alexia Robinson

◎简  介  


  影片讲述令人闻风丧胆的糖人再度回来了,今次目的是要说服他那个当艺术家的女后人,跟他一样成为鼎鼎大名的人物的故事。


Video
ID : 1
Format : AVC
Format/Info : Advanced Video Codec
Format profile : Main@L4.1
Format settings : CABAC / 3 Ref Frames
Format settings, CABAC : Yes
Format settings, ReFrames : 3 frames
Codec ID : V_MPEG4/ISO/AVC
Duration : 1 h 33 min
Bit rate mode : Variable
Bit rate : 26.0 Mb/s
Maximum bit rate : 36.0 Mb/s
Width : 1 920 pixels
Height : 1 080 pixels
Display aspect ratio : 16:9
Frame rate mode : Constant
Frame rate : 23.976 (24000/1001) FPS
Color space : YUV
Chroma subsampling : 4:2:0
Bit depth : 8 bits
Scan type : Progressive
Bits/(Pixel*Frame) : 0.523
Stream size : 16.9 GiB (89%)
Title : Candyman.Day.of.the.Dead.1999.1080p.BluRay.REMUX.AVC.DTS-HD.MA.2.0-FGT
Writing library : x264 core 148 r2643 5c65704
Encoding settings : cabac=1 / ref=1 / deblock=1:-1:-1 / analyse=0x1:0 / me=dia / subme=2 / psy=1 / psy_rd=1.00:0.15 / mixed_ref=0 / me_range=16 / chroma_me=1 / trellis=0 / 8x8dct=0 / cqm=0 / deadzone=21,11 / fast_pskip=1 / chroma_qp_offset=0 / threads=16 / lookahead_threads=8 / sliced_threads=0 / slices=4 / nr=0 / decimate=1 / interlaced=0 / bluray_compat=1 / constrained_intra=0 / bframes=3 / b_pyramid=1 / b_adapt=2 / b_bias=0 / direct=3 / weightb=1 / open_gop=0 / weightp=1 / keyint=24 / keyint_min=1 / scenecut=40 / intra_refresh=0 / rc_lookahead=24 / rc=abr / mbtree=1 / bitrate=26000 / ratetol=1.0 / qcomp=0.60 / qpmin=0 / qpmax=69 / qpstep=4 / vbv_maxrate=36000 / vbv_bufsize=30000 / nal_hrd=vbr / filler=0 / ip_ratio=1.40 / aq=1:1.00
Language : English
Default : No
Forced : No
Color range : Limited
Color primaries : BT.709
Transfer characteristics : BT.709
Matrix coefficients : BT.709

Audio #1
ID : 2
Format : DTS XLL
Format/Info : Digital Theater Systems
Commercial name : DTS-HD Master Audio
Codec ID : A_DTS
Duration : 1 h 33 min
Bit rate mode : Variable
Bit rate : 1 678 kb/s
Channel(s) : 2 channels
Channel layout : L R
Sampling rate : 48.0 kHz
Frame rate : 93.750 FPS (512 SPF)
Bit depth : 16 bits
Compression mode : Lossless
Stream size : 1.09 GiB (6%)
Title : Candyman.Day.of.the.Dead.1999.1080p.BluRay.REMUX.AVC.DTS-HD.MA.2.0-FGT
Language : English
Default : Yes
Forced : No

Audio #2
ID : 3
Format : DTS
Format/Info : Digital Theater Systems
Codec ID : A_DTS
Duration : 1 h 33 min
Bit rate mode : Constant
Bit rate : 1 509 kb/s
Channel(s) : 2 channels
Channel layout : L R
Sampling rate : 48.0 kHz
Frame rate : 93.750 FPS (512 SPF)
Bit depth : 16 bits
Compression mode : Lossy
Stream size : 1 007 MiB (5%)
Title : Candyman.Day.of.the.Dead.1999.1080p.BluRay.REMUX.AVC.DTS-HD.MA.2.0-FGT
Language : English
Default : No
Forced : No

Text
ID : 4
Format : PGS
Muxing mode : zlib
Codec ID : S_HDMV/PGS
Codec ID/Info : Picture based subtitle format used on BDs/HD-DVDs
Duration : 1 h 22 min
Bit rate : 18.1 kb/s
Count of elements : 1253
Stream size : 10.7 MiB (0%)
Title : English-PGS
Language : English
Default : Yes
Forced : No

Menu
00:00:00.000 : en:Chapter 01
00:06:44.570 : en:Chapter 02
00:11:29.980 : en:Chapter 03
00:23:06.676 : en:Chapter 04
00:29:59.172 : en:Chapter 05
00:39:53.724 : en:Chapter 06
00:46:49.932 : en:Chapter 07
00:54:09.496 : en:Chapter 08
01:01:41.489 : en:Chapter 09
01:10:22.051 : en:Chapter 10
01:16:42.806 : en:Chapter 11
01:29:06.299 : en:Chapter 12



上传的附件:
最新回复 (0)
返回