[GSCQ]公平游戏 Fair.Game.1986.1080p.BluRay.REMUX.AVC.DTS-HD.MA.2.0-FGT 17GB 更早 欧美 惊悚

solomovie 2019-03-15 01:35 4728

Fair.Game.1986.1080p.BluRay.REMUX.AVC.DTS-HD.MA.2.0-FGT


◎译  名 公平游戏

◎片  名 Fair Game

◎年  代 1986

◎产  地 澳大利亚

◎类  别 动作 / 惊悚 / 恐怖

◎语  言 英语

◎IMDb评分 6.0/10 from 696 users

◎IMDb链接 http://www.imdb.com/title/tt0089122

◎片  长 82分钟

◎导  演 Mario Andreacchio

◎编  剧 Rob George

◎主  演 Cassandra Delaney

      Peter Ford

      David Sandford

      Garry Who

◎简  介  


  A young woman running a wildlife sanctuary in the Australian outback is in for trouble when she is confronted by three kangaroo hunters. Bored with killing kangaroos, they decide to kill the animals in the sanctuary, and when they see how attractive the owner is, they decide to have a little "fun" with her, too. Turns out that they may get a bit more "fun" than they bargained for.


Video
ID : 1
Format : AVC
Format/Info : Advanced Video Codec
Format profile : High@L4.1
Format settings : CABAC / 3 Ref Frames
Format settings, CABAC : Yes
Format settings, ReFrames : 3 frames
Codec ID : V_MPEG4/ISO/AVC
Duration : 1 h 25 min
Bit rate mode : Variable
Bit rate : 25.0 Mb/s
Width : 1 920 pixels
Height : 1 080 pixels
Display aspect ratio : 16:9
Frame rate mode : Constant
Frame rate : 23.976 (24000/1001) FPS
Standard : NTSC
Color space : YUV
Chroma subsampling : 4:2:0
Bit depth : 8 bits
Scan type : Progressive
Bits/(Pixel*Frame) : 0.503
Stream size : 14.9 GiB (86%)
Title : Fair.Game.1986.1080p.BluRay.REMUX.AVC.DTS-HD.MA.2.0_FGT
Writing library : x264pro - Adobe CS Exporter Plug-in
Encoding settings : cabac=1 / ref=4 / deblock=1:-1:-1 / analyse=0x3:0x133 / me=umh / subme=10 / psy=1 / psy_rd=1.00:0.15 / mixed_ref=1 / me_range=24 / chroma_me=1 / trellis=2 / 8x8dct=1 / cqm=0 / deadzone=21,11 / fast_pskip=1 / chroma_qp_offset=-3 / threads=48 / lookahead_threads=8 / sliced_threads=0 / slices=4 / nr=0 / decimate=1 / interlaced=0 / bluray_compat=1 / constrained_intra=0 / bframes=3 / b_pyramid=1 / b_adapt=2 / b_bias=0 / direct=3 / weightb=1 / open_gop=0 / weightp=1 / keyint=24 / keyint_min=1 / scenecut=40 / intra_refresh=0 / rc_lookahead=28 / rc=2pass / mbtree=1 / bitrate=25000 / ratetol=1.0 / qcomp=0.60 / qpmin=0 / qpmax=69 / qpstep=4 / cplxblur=20.0 / qblur=0.5 / vbv_maxrate=25000 / vbv_bufsize=30000 / nal_hrd=vbr / ip_ratio=1.40 / aq=1:1.00
Language : English
Default : No
Forced : No
Color range : Limited
Color primaries : BT.709
Transfer characteristics : BT.709
Matrix coefficients : BT.709

Audio #1
ID : 2
Format : DTS XLL
Format/Info : Digital Theater Systems
Commercial name : DTS-HD Master Audio
Codec ID : A_DTS
Duration : 1 h 25 min
Bit rate mode : Variable
Bit rate : 2 098 kb/s
Channel(s) : 2 channels
Sampling rate : 48.0 kHz
Frame rate : 93.750 FPS (512 SPF)
Bit depth : 24 bits
Compression mode : Lossless
Stream size : 1.26 GiB (7%)
Title : Fair.Game.1986.1080p.BluRay.REMUX.AVC.DTS-HD.MA.2.0_FGT
Language : English
Default : Yes
Forced : No

Audio #2
ID : 3
Format : DTS
Format/Info : Digital Theater Systems
Codec ID : A_DTS
Duration : 1 h 25 min
Bit rate mode : Constant
Bit rate : 1 509 kb/s
Channel(s) : 2 channels
Channel layout : Lt Rt
Sampling rate : 48.0 kHz
Frame rate : 93.750 FPS (512 SPF)
Bit depth : 24 bits
Compression mode : Lossy
Stream size : 926 MiB (5%)
Title : Fair.Game.1986.1080p.BluRay.REMUX.AVC.DTS-HD.MA.2.0_FGT
Language : English
Default : No
Forced : No

Audio #3
ID : 4
Format : AC-3
Format/Info : Audio Coding 3
Commercial name : Dolby Digital
Codec ID : A_AC3
Duration : 1 h 25 min
Bit rate mode : Constant
Bit rate : 384 kb/s
Channel(s) : 2 channels
Channel layout : L R
Sampling rate : 48.0 kHz
Frame rate : 31.250 FPS (1536 SPF)
Bit depth : 16 bits
Compression mode : Lossy
Stream size : 236 MiB (1%)
Title : Fair.Game.1986.1080p.BluRay.REMUX.AVC.DTS-HD.MA.2.0_FGT
Language : English
Service kind : Complete Main
Default : No
Forced : No

Menu
00:00:00.000 : en:Chapter 01
00:00:03.003 : en:Chapter 02
00:12:51.020 : en:Chapter 03
00:22:14.166 : en:Chapter 04
00:28:00.178 : en:Chapter 05
00:34:25.605 : en:Chapter 06
00:43:13.007 : en:Chapter 07
00:51:50.690 : en:Chapter 08
00:55:32.412 : en:Chapter 09
01:03:44.320 : en:Chapter 10
01:09:36.422 : en:Chapter 11
01:14:41.685 : en:Chapter 12
01:23:50.358 : en:Chapter 13



上传的附件:
最新回复 (0)
返回