[GSCQ]镜中人 Look.Away.2018.1080p.BluRay.REMUX.AVC.DTS-HD.MA.5.1-FGT 18GB 2018 欧美 惊悚

solomovie 2019-03-15 01:34 5040

Look.Away.2018.1080p.BluRay.REMUX.AVC.DTS-HD.MA.5.1-FGT


◎译  名 镜中人 / Behind the Glass

◎片  名 Look Away

◎年  代 2018

◎产  地 美国

◎类  别 惊悚

◎语  言 英语

◎上映日期 2018-10-12(美国)

◎IMDb评分 6.2/10 from 7279 users

◎IMDb链接 http://www.imdb.com/title/tt5834760

◎豆瓣评分 5.8/10 from 2380 users

◎豆瓣链接 https://movie.douban.com/subject/26942853/

◎片  长 103分钟

◎导  演 阿萨夫·伯恩斯坦 Assaf Bernstein

◎编  剧 阿萨夫·伯恩斯坦 Assaf Bernstein

◎主  演 英迪娅·埃斯利 India Eisley

      詹森·艾萨克 Jason Isaacs

      佩内洛普·米契尔 Penelope Mitchell

      米拉·索维诺 Mira Sorvino

      哈里森·吉尔伯特森 Harrison Gilbertson

      克里斯汀·哈里斯 Kristen Harris

      亚当·哈蒂格 Adam Hurtig

      Connor Peterson

      Cindy Myskiw

◎简  介  


  十八岁女孩玛丽亚(英迪娅·埃斯利 饰)经常受到同学欺负,使她变得自卑,害怕。有一天她发现镜子里的另一个她,艾兰。

艾兰(英迪娅·埃斯利 饰)既勇敢又无畏,帮助玛丽亚开启了复仇之路......


Video
ID : 1
Format : AVC
Format/Info : Advanced Video Codec
Format profile : High@L4.1
Format settings : CABAC / 3 Ref Frames
Format settings, CABAC : Yes
Format settings, ReFrames : 3 frames
Codec ID : V_MPEG4/ISO/AVC
Duration : 1 h 43 min
Bit rate mode : Variable
Bit rate : 22.1 Mb/s
Maximum bit rate : 37.0 Mb/s
Width : 1 920 pixels
Height : 1 080 pixels
Display aspect ratio : 16:9
Frame rate mode : Constant
Frame rate : 23.976 (24000/1001) FPS
Color space : YUV
Chroma subsampling : 4:2:0
Bit depth : 8 bits
Scan type : Progressive
Bits/(Pixel*Frame) : 0.444
Stream size : 16.0 GiB (86%)
Title : Look.Away.2018.1080p.BluRay.REMUX.AVC.DTS-HD.MA.5.1-FGT
Language : English
Default : No
Forced : No

Audio #1
ID : 2
Format : DTS XLL
Format/Info : Digital Theater Systems
Commercial name : DTS-HD Master Audio
Codec ID : A_DTS
Duration : 1 h 43 min
Bit rate mode : Variable
Bit rate : 1 961 kb/s
Channel(s) : 6 channels
Channel layout : C L R Ls Rs LFE
Sampling rate : 48.0 kHz
Frame rate : 93.750 FPS (512 SPF)
Bit depth : 16 bits
Compression mode : Lossless
Stream size : 1.42 GiB (8%)
Title : Look.Away.2018.1080p.BluRay.REMUX.AVC.DTS-HD.MA.5.1-FGT
Language : English
Default : No
Forced : No

Audio #2
ID : 3
Format : DTS
Format/Info : Digital Theater Systems
Codec ID : A_DTS
Duration : 1 h 43 min
Bit rate mode : Constant
Bit rate : 1 509 kb/s
Channel(s) : 6 channels
Channel layout : C L R Ls Rs LFE
Sampling rate : 48.0 kHz
Frame rate : 93.750 FPS (512 SPF)
Bit depth : 16 bits
Compression mode : Lossy
Stream size : 1.09 GiB (6%)
Title : Look.Away.2018.1080p.BluRay.REMUX.AVC.DTS-HD.MA.5.1-FGT
Language : English
Default : No
Forced : No

Menu
00:00:00.000 : en:Chapter 01
00:10:36.093 : en:Chapter 02
00:19:56.069 : en:Chapter 03
00:26:28.795 : en:Chapter 04
00:35:58.281 : en:Chapter 05
00:43:52.588 : en:Chapter 06
00:53:10.937 : en:Chapter 07
01:01:52.417 : en:Chapter 08
01:09:05.599 : en:Chapter 09
01:17:09.833 : en:Chapter 10
01:24:26.394 : en:Chapter 11
01:37:19.083 : en:Chapter 12



上传的附件:
最新回复 (0)
返回