[GSCQ]死亡半径 Radius.2017.1080p.BluRay.REMUX.MPEG-2.DTS-HD.MA.5.1-FGT 14GB 2017 欧美 科幻

aostterm 2019-03-15 01:33 4872

Radius.2017.1080p.BluRay.REMUX.MPEG-2.DTS-HD.MA.5.1-FGT


◎译  名 死亡半径 / 索命半径

◎片  名 Radius

◎年  代 2017

◎产  地 加拿大

◎类  别 科幻 / 惊悚

◎语  言 英语

◎上映日期 2017-07-17(奇幻电影节)

◎IMDb评分 6.2/10 from 9439 users

◎IMDb链接 http://www.imdb.com/title/tt6097798

◎豆瓣评分 6.3/10 from 3712 users

◎豆瓣链接 https://movie.douban.com/subject/26939444/

◎片  长 92分钟

◎导  演 卡罗琳·拉布里奇 Caroline Labrèche / 史蒂夫·伦纳德 Steeve Léonard

◎编  剧 卡罗琳·拉布里奇 Caroline Labrèche

◎主  演 迪亚哥·克莱特霍夫 Diego Klattenhoff

      夏洛蒂·苏利文 Charlotte Sullivan

      罗伯特·博尔赫斯 Robert Borges

      安德里亚·德尔·坎普 Andrea del Campo

      纳扎利·德姆克维奇 Nazariy Demkowicz

      布雷特·多纳休 Brett Donahue

      艾丽西亚·约翰斯顿 Alicia Johnston

      加斯·梅尔克利 Garth Merkeley

      达伦·罗斯 Darren Ross

      布拉德利·索茨基 Bradley Sawatzky

◎简  介  


  利亚姆从车祸中醒来,却不记得他是谁。当他走进小镇寻求帮助时,他发现只有死人,所有的人都有着奇怪苍白的眼睛。利亚姆的第一感应是,一种病毒出现在空气中。但他很快就发现了可怕的真相:“任何一个在离他50英尺半径范围内的人都会立刻死亡。”


Video
ID : 1
Format : MPEG Video
Format version : Version 2
Format profile : Main@High
Format settings : CustomMatrix / BVOP
Format settings, BVOP : Yes
Format settings, Matrix : Custom
Format settings, GOP : M=3, N=15
Codec ID : V_MPEG2
Codec ID/Info : MPEG 1 or 2 Video
Duration : 1 h 32 min
Bit rate mode : Variable
Bit rate : 17.4 Mb/s
Maximum bit rate : 25.0 Mb/s
Width : 1 920 pixels
Height : 1 080 pixels
Display aspect ratio : 16:9
Frame rate mode : Constant
Frame rate : 24.000 FPS
Color space : YUV
Chroma subsampling : 4:2:0
Bit depth : 8 bits
Scan type : Progressive
Compression mode : Lossy
Bits/(Pixel*Frame) : 0.350
Time code of first frame : 00:00:00:00
Time code source : Group of pictures header
GOP, Open/Closed : Closed
Stream size : 11.3 GiB (78%)
Title : Radius.2017.1080p.BluRay.REMUX.MPEG-2.DTS-HD.MA.5.1-FGT
Language : English
Default : No
Forced : No

Audio #1
ID : 2
Format : DTS XLL
Format/Info : Digital Theater Systems
Commercial name : DTS-HD Master Audio
Codec ID : A_DTS
Duration : 1 h 32 min
Bit rate mode : Variable
Bit rate : 3 273 kb/s
Channel(s) : 6 channels
Channel layout : C L R Ls Rs LFE
Sampling rate : 48.0 kHz
Frame rate : 93.750 FPS (512 SPF)
Bit depth : 24 bits
Compression mode : Lossless
Stream size : 2.12 GiB (15%)
Title : Radius.2017.1080p.BluRay.REMUX.MPEG-2.DTS-HD.MA.5.1-FGT
Language : English
Default : Yes
Forced : No

Audio #2
ID : 3
Format : DTS
Format/Info : Digital Theater Systems
Codec ID : A_DTS
Duration : 1 h 32 min
Bit rate mode : Constant
Bit rate : 1 509 kb/s
Channel(s) : 6 channels
Channel layout : C L R Ls Rs LFE
Sampling rate : 48.0 kHz
Frame rate : 93.750 FPS (512 SPF)
Bit depth : 24 bits
Compression mode : Lossy
Stream size : 999 MiB (7%)
Title : Radius.2017.1080p.BluRay.REMUX.MPEG-2.DTS-HD.MA.5.1-FGT
Language : English
Default : No
Forced : No

Menu
00:00:00.000 : de:Chapter 01
00:10:41.000 : de:Chapter 02
00:21:56.125 : de:Chapter 03
00:33:59.833 : de:Chapter 04
00:45:48.125 : de:Chapter 05
00:57:06.625 : de:Chapter 06
01:10:02.083 : de:Chapter 07
01:21:03.125 : de:Chapter 08
01:26:17.916 : de:Chapter 09
01:32:26.041 : de:Chapter 10



上传的附件:
最新回复 (0)
返回