[GSCQ]毒气室 The.Chamber.1996.1080p.BluRay.REMUX.AVC.DTS-HD.MA.5.1-FGT 19GB 更早 欧美 惊悚

aostterm 2019-03-15 01:32 4836

The.Chamber.1996.1080p.BluRay.REMUX.AVC.DTS-HD.MA.5.1-FGT


◎译  名 毒气室 / 毒室裁决 / 终极审判

◎片  名 The Chamber

◎年  代 1996

◎产  地 美国

◎类  别 剧情 / 惊悚

◎语  言 英语

◎上映日期 1996-10-11

◎IMDb评分 6.0/10 from 11755 users

◎IMDb链接 http://www.imdb.com/title/tt0115862

◎豆瓣评分 7.4/10 from 139 users

◎豆瓣链接 https://movie.douban.com/subject/1298908/

◎片  长 113 分钟

◎导  演 詹姆斯·弗雷 James Foley

◎编  剧 Chris Reese / 威廉姆·高德曼 William Goldman

◎主  演 克里斯·奥唐纳 Chris O'Donnell

      吉恩·哈克曼 Gene Hackman

      费·唐纳薇 Faye Dunaway

◎简  介  


  因炸死犹太律师两个孩子的死刑犯山姆,在监狱已经待了十几年了,在临刑前28天第一次见到孙子——已成为助理律师的亚当。山姆是一个种族主义者,仇视黑人,鄙视犹太人,因为犹太律师是一位民权主义者,山姆被种族组织利用,去炸犹太律师的事务所,不成想却炸死了律师的两个孩子,被逮捕入狱判处死刑。但是山姆深受种族教育毒害,决心用自己的死来保全其他种族分子,所以入狱后把一切都揽在自己身上。亚当用诚挚恳求和家人所遭受的不幸说服山姆提起上诉。亚当开始了解祖父的故事。山姆因为家族的关系而参与到三K党活动中去的,10岁的时候已经参加过三次执行私刑的活动。山姆4代人都参加过三k党,最早的祖先曾经是三K党创始人之一。山姆去杀人完全是履行职责。亚当通过明查暗访,了解到山姆根本不懂爆破,所以,他不可能是主谋。只要官方允许他调阅档案,他相信还能找到更充分的证据。但是州长不同意,山姆也表示要孙子放弃,别再上诉。但是亚当决心为祖父翻案。通过一位黑人美女的帮助,她的身份是州长办公室人员,亚当看到了封存的档案,当年的爆炸案的确还有别人参与,当时因为会牵涉到一些政府要员,所以案件不了了之,山姆成了替罪羊。亚当在一位当年审理过案件的联邦探员的帮助下,找到了爆炸案的主谋RW,RW指使人把亚当暴打一顿,然后用枪指着亚当威胁说别想翻案,RW还去监狱威胁山姆,让山姆闭嘴,舍身成仁。慢慢地山姆开始醒悟,渴望向伤害过的人忏悔,对生命也有了一丝期望。可是由于案件影响极大,还有一些幕后人员的操纵,案件被最高院驳回,山姆被执行了死刑,在毒气室里翻了白眼。


Video
ID : 1
Format : AVC
Format/Info : Advanced Video Codec
Format profile : High@L4.1
Format settings : CABAC / 4 Ref Frames
Format settings, CABAC : Yes
Format settings, ReFrames : 4 frames
Codec ID : V_MPEG4/ISO/AVC
Duration : 1 h 52 min
Bit rate mode : Variable
Bit rate : 21.0 Mb/s
Maximum bit rate : 35.0 Mb/s
Width : 1 920 pixels
Height : 1 080 pixels
Display aspect ratio : 16:9
Frame rate mode : Constant
Frame rate : 23.976 (24000/1001) FPS
Standard : Component
Color space : YUV
Chroma subsampling : 4:2:0
Bit depth : 8 bits
Scan type : Progressive
Bits/(Pixel*Frame) : 0.422
Stream size : 16.5 GiB (86%)
Title : The.Chamber.1996.1080p.BluRay.REMUX.AVC.DTS-HD.MA.5.1-FGT
Writing library : x264 core 148
Encoding settings : cabac=1 / ref=4 / deblock=1:0:0 / analyse=0x3:0x113 / me=hex / subme=7 / psy=1 / psy_rd=1.00:0.00 / mixed_ref=1 / me_range=16 / chroma_me=1 / trellis=1 / 8x8dct=1 / cqm=1 / deadzone=21,11 / fast_pskip=1 / chroma_qp_offset=-2 / threads=24 / lookahead_threads=4 / sliced_threads=0 / slices=4 / nr=0 / decimate=1 / interlaced=0 / minigop=1 / stitchable=1 / constrained_intra=0 / bframes=2 / b_pyramid=0 / b_adapt=1 / b_bias=0 / direct=1 / weightb=1 / open_gop=1 / weightp=1 / keyint=24 / keyint_min=1 / scenecut=40 / intra_refresh=0 / rc_lookahead=24 / rc=2pass / mbtree=1 / bitrate=21000 / ratetol=1.0 / qcomp=0.60 / qpmin=3 / qpmax=69 / qpstep=4 / cplxblur=20.0 / qblur=0.5 / vbv_maxrate=35000 / vbv_bufsize=30000 / nal_hrd=vbr / filler=0 / ip_ratio=1.40 / aq=1:1.00
Language : English
Default : No
Forced : No
Color range : Limited
Color primaries : BT.709
Transfer characteristics : BT.709
Matrix coefficients : BT.709

Audio #1
ID : 2
Format : DTS XLL
Format/Info : Digital Theater Systems
Commercial name : DTS-HD Master Audio
Codec ID : A_DTS
Duration : 1 h 52 min
Bit rate mode : Variable
Bit rate : 1 948 kb/s
Channel(s) : 6 channels
Channel layout : C L R Ls Rs LFE
Sampling rate : 48.0 kHz
Frame rate : 93.750 FPS (512 SPF)
Bit depth : 16 bits
Compression mode : Lossless
Stream size : 1.53 GiB (8%)
Title : The.Chamber.1996.1080p.BluRay.REMUX.AVC.DTS-HD.MA.5.1-FGT
Language : English
Default : Yes
Forced : No

Audio #2
ID : 3
Format : DTS
Format/Info : Digital Theater Systems
Codec ID : A_DTS
Duration : 1 h 52 min
Bit rate mode : Constant
Bit rate : 1 509 kb/s
Channel(s) : 6 channels
Channel layout : C L R Ls Rs LFE
Sampling rate : 48.0 kHz
Frame rate : 93.750 FPS (512 SPF)
Bit depth : 16 bits
Compression mode : Lossy
Stream size : 1.19 GiB (6%)
Title : The.Chamber.1996.1080p.BluRay.REMUX.AVC.DTS-HD.MA.5.1-FGT
Language : English
Default : No
Forced : No

Menu
00:00:00.000 : en:Chapter 01
00:15:10.367 : en:Chapter 02
00:28:22.450 : en:Chapter 03
00:43:02.371 : en:Chapter 04
00:56:56.538 : en:Chapter 05
01:09:56.901 : en:Chapter 06
01:22:53.718 : en:Chapter 07
01:38:10.968 : en:Chapter 08



上传的附件:
最新回复 (0)
返回