[GSCQ]追逐者 The.Tracker.2002.1080p.BluRay.REMUX.AVC.DTS-HD.MA.5.1-FGT 20GB 更早 欧美 历史

Connie 2019-03-15 01:29 12756

The.Tracker.2002.1080p.BluRay.REMUX.AVC.DTS-HD.MA.5.1-FGT


◎译  名 追逐者 / 紧急追踪 / 纤夫

◎片  名 The Tracker

◎年  代 2002

◎产  地 澳大利亚

◎类  别 剧情 / 历史

◎语  言 英语

◎上映日期 2002-08-08

◎IMDb评分 7.5/10 from 2055 users

◎IMDb链接 http://www.imdb.com/title/tt0212132

◎片  长 90 分钟

◎导  演 Rolf de Heer

◎编  剧 Rolf de Heer

◎主  演 David Gulpilil

      Gary Sweet

      Damon Gameau

◎简  介  


  1922在澳大利亚的某处。一名当地人被控告谋杀了一个白种女子,然后三个白种男人在另外一名澳大利亚当地人的帮助下去执行任务将案犯捉拿。于是他们开始在澳大利亚内陆展开搜索行动,但他们并不知道内陆土著反对与支持种族主义的残忍斗争将比他们这次搜寻更艰险可怕……


◎获奖情况  


  第59届威尼斯电影节(2002)

  主竞赛单元 金狮奖 (提名) 洛夫·德·希尔

  天主教文化特别荣誉奖 洛夫·德·希尔


Video
ID : 1
Format : AVC
Format/Info : Advanced Video Codec
Format profile : High@L4.1
Format settings : CABAC / 3 Ref Frames
Format settings, CABAC : Yes
Format settings, ReFrames : 3 frames
Codec ID : V_MPEG4/ISO/AVC
Duration : 1 h 38 min
Bit rate mode : Variable
Bit rate : 25.0 Mb/s
Width : 1 920 pixels
Height : 1 080 pixels
Display aspect ratio : 16:9
Frame rate mode : Constant
Frame rate : 23.976 (24000/1001) FPS
Standard : NTSC
Color space : YUV
Chroma subsampling : 4:2:0
Bit depth : 8 bits
Scan type : Progressive
Bits/(Pixel*Frame) : 0.503
Stream size : 16.9 GiB (84%)
Title : The.Tracker.2002.1080p.BluRay.REMUX.AVC.DTS-HD.MA.5.1-FGT
Writing library : x264pro - Adobe CS Exporter Plug-in
Encoding settings : cabac=1 / ref=4 / deblock=1:-1:-1 / analyse=0x3:0x133 / me=umh / subme=10 / psy=1 / psy_rd=1.00:0.15 / mixed_ref=1 / me_range=24 / chroma_me=1 / trellis=2 / 8x8dct=1 / cqm=0 / deadzone=21,11 / fast_pskip=1 / chroma_qp_offset=-3 / threads=48 / lookahead_threads=8 / sliced_threads=0 / slices=4 / nr=0 / decimate=1 / interlaced=0 / bluray_compat=1 / constrained_intra=0 / bframes=3 / b_pyramid=1 / b_adapt=2 / b_bias=0 / direct=3 / weightb=1 / open_gop=0 / weightp=1 / keyint=24 / keyint_min=1 / scenecut=40 / intra_refresh=0 / rc_lookahead=28 / rc=2pass / mbtree=1 / bitrate=25000 / ratetol=1.0 / qcomp=0.60 / qpmin=0 / qpmax=69 / qpstep=4 / cplxblur=20.0 / qblur=0.5 / vbv_maxrate=25000 / vbv_bufsize=30000 / nal_hrd=vbr / ip_ratio=1.40 / aq=1:1.00
Language : English
Default : No
Forced : No
Color range : Limited
Color primaries : BT.709
Transfer characteristics : BT.709
Matrix coefficients : BT.709

Audio #1
ID : 2
Format : DTS XLL
Format/Info : Digital Theater Systems
Commercial name : DTS-HD Master Audio
Codec ID : A_DTS
Duration : 1 h 38 min
Bit rate mode : Variable
Bit rate : 3 158 kb/s
Channel(s) : 6 channels
Channel layout : C L R Ls Rs LFE
Sampling rate : 48.0 kHz
Frame rate : 93.750 FPS (512 SPF)
Bit depth : 24 bits
Compression mode : Lossless
Stream size : 2.16 GiB (11%)
Title : The.Tracker.2002.1080p.BluRay.REMUX.AVC.DTS-HD.MA.5.1-FGT
Language : English
Default : Yes
Forced : No

Audio #2
ID : 3
Format : DTS
Format/Info : Digital Theater Systems
Codec ID : A_DTS
Duration : 1 h 38 min
Bit rate mode : Constant
Bit rate : 1 509 kb/s
Channel(s) : 6 channels
Channel layout : C L R Ls Rs LFE
Sampling rate : 48.0 kHz
Frame rate : 93.750 FPS (512 SPF)
Bit depth : 24 bits
Compression mode : Lossy
Stream size : 1.03 GiB (5%)
Title : The.Tracker.2002.1080p.BluRay.REMUX.AVC.DTS-HD.MA.5.1-FGT
Language : English
Default : No
Forced : No

Menu
00:00:00.000 : en:Chapter 01
00:07:21.399 : en:Chapter 02
00:14:21.986 : en:Chapter 03
00:20:02.701 : en:Chapter 04
00:27:27.520 : en:Chapter 05
00:34:45.041 : en:Chapter 06
00:42:16.492 : en:Chapter 07
00:49:42.437 : en:Chapter 08
00:58:12.071 : en:Chapter 09
01:10:57.503 : en:Chapter 10
01:20:53.974 : en:Chapter 11
01:30:43.563 : en:Chapter 12
01:34:02.970 : en:Chapter 13



上传的附件:
最新回复 (0)
返回