[GSCQ]小叮当 Tinker.Bell.2008.1080p.BluRay.REMUX.AVC.LPCM.5.1-FGT 22GB 2008 欧美 动画

Connie 2019-03-15 01:28 5544

Tinker.Bell.2008.1080p.BluRay.REMUX.AVC.LPCM.5.1-FGT


◎译  名 小叮当 / The Tinker Bell Movie / Tinker Bell and the Ring of Belief / 奇妙仙子(台) / 廷克·贝尔

◎片  名 Tinker Bell

◎年  代 2008

◎产  地 美国

◎类  别 喜剧 / 动画 / 奇幻 / 冒险

◎语  言 英语

◎上映日期 2008-10-28(美国)

◎IMDb评分 6.9/10 from 10443 users

◎IMDb链接 http://www.imdb.com/title/tt0823671

◎豆瓣评分 7.8/10 from 7398 users

◎豆瓣链接 https://movie.douban.com/subject/1859845/

◎片  长 78分钟

◎导  演 布拉德利·雷蒙德 Bradley Raymond

◎编  剧 杰弗里·M·霍华德 Jeffrey M. Howard / 布拉德利·雷蒙德 Bradley Raymond / J·M·巴利 J.M. Barrie

◎主  演 梅·惠特曼 Mae Whitman

      克里斯汀·肯诺恩斯 Kristin Chenoweth

      雷文-西蒙尼 Raven-Symoné

      刘玉玲 Lucy Liu

      亚美莉卡·费雷拉 America Ferrera

      简·霍洛克斯 Jane Horrocks

      杰西·麦卡尼 Jesse McCartney

      杰夫·贝内特 Jeff Bennett

      罗伯·鲍森 Rob Paulsen

      帕梅拉·阿德龙 Pamela Adlon

      安杰丽卡·休斯顿 Anjelica Huston

      罗琳娜·麦肯尼特 Loreena McKennitt

      史蒂夫·瓦伦丁 Steve Valentine

      凯茜·纳基麦 Kathy Najimy

      理查德·波特诺 Richard Portnow

      盖尔·博尔赫斯 Gail Borges

      亚美莉卡·杨 America Young

      凯特·克雷西达 Kat Cressida

      鲍伯·伯根 Bob Bergen

◎简  介  


  奇妙的精灵世界里居住着成千上万的小精灵,他们各司其职,装点广阔人间:风仙子为花儿传粉;花仙子为花草上色;水仙子给大地解冻;动物仙子唤醒冬眠的小动物……然而小叮当(梅·惠特曼 Mae Whitman 配音)却只是一名修理仙子,负责制造和修补一些工具,她天天渴望能像姐妹们一样到人间工作,装扮春天。于是,小叮当开始苦练姐妹们的能力,希望改变自己的职能。然而冒冒失失的她虽然学习刻苦,但也闯祸不断,甚至在学习风仙子的技能时不慎破坏了春天的准备进程。懊恼悔恨之时,她却意外发现了自己发明创造的天赋,小叮当决定将功补过,努力发明提高工作速率的工具,让人间的春天及时降临……

本片为迪士尼公司制作的《奇妙仙子》系列作品中的第一部。


Video
ID : 1
Format : AVC
Format/Info : Advanced Video Codec
Format profile : High@L4.1
Format settings : CABAC / 4 Ref Frames
Format settings, CABAC : Yes
Format settings, ReFrames : 4 frames
Format settings, GOP : M=3, N=12
Codec ID : V_MPEG4/ISO/AVC
Duration : 1 h 17 min
Bit rate mode : Variable
Bit rate : 28.8 Mb/s
Maximum bit rate : 31.9 Mb/s
Width : 1 920 pixels
Height : 1 080 pixels
Display aspect ratio : 16:9
Frame rate mode : Constant
Frame rate : 23.976 (24000/1001) FPS
Color space : YUV
Chroma subsampling : 4:2:0
Bit depth : 8 bits
Scan type : Progressive
Bits/(Pixel*Frame) : 0.579
Stream size : 15.7 GiB (70%)
Title : Tinker.Bell.2008.1080p.BluRay.REMUX.AVC.LPCM.5.1-FGT
Language : English
Default : No
Forced : No
Color range : Limited
Color primaries : BT.709
Transfer characteristics : BT.709
Matrix coefficients : BT.709

Audio #1
ID : 2
Format : PCM
Format settings : Little / Signed
Codec ID : A_MS/ACM / 00000001-0000-0010-8000-00AA00389B71
Duration : 1 h 17 min
Bit rate mode : Constant
Bit rate : 6 912 kb/s / 6 912 kb/s
Channel(s) : 6 channels
Channel layout : L R C LFE Ls Rs
Sampling rate : 48.0 kHz
Frame rate : 30.000 FPS (1600 SPF)
Bit depth : 24 bits
Stream size : 3.76 GiB (17%)
Title : Tinker.Bell.2008.1080p.BluRay.REMUX.AVC.LPCM.5.1-FGT
Language : English
Default : Yes
Forced : No

Audio #2
ID : 3
Format : AC-3
Format/Info : Audio Coding 3
Commercial name : Dolby Digital
Codec ID : A_AC3
Duration : 1 h 17 min
Bit rate mode : Constant
Bit rate : 640 kb/s
Channel(s) : 6 channels
Channel layout : L R C LFE Ls Rs
Sampling rate : 48.0 kHz
Frame rate : 31.250 FPS (1536 SPF)
Bit depth : 16 bits
Compression mode : Lossy
Stream size : 357 MiB (2%)
Title : Tinker.Bell.2008.1080p.BluRay.REMUX.AVC.LPCM.5.1-FGT
Language : English
Service kind : Complete Main
Default : No
Forced : No

Audio #3
ID : 4
Format : AC-3
Format/Info : Audio Coding 3
Commercial name : Dolby Digital
Codec ID : A_AC3
Duration : 1 h 17 min
Bit rate mode : Constant
Bit rate : 640 kb/s
Channel(s) : 6 channels
Channel layout : L R C LFE Ls Rs
Sampling rate : 48.0 kHz
Frame rate : 31.250 FPS (1536 SPF)
Bit depth : 16 bits
Compression mode : Lossy
Stream size : 357 MiB (2%)
Title : Tinker.Bell.2008.1080p.BluRay.REMUX.AVC.LPCM.5.1-FGT
Language : Swedish
Service kind : Complete Main
Default : No
Forced : No

Audio #4
ID : 5
Format : AC-3
Format/Info : Audio Coding 3
Commercial name : Dolby Digital
Codec ID : A_AC3
Duration : 1 h 17 min
Bit rate mode : Constant
Bit rate : 640 kb/s
Channel(s) : 6 channels
Channel layout : L R C LFE Ls Rs
Sampling rate : 48.0 kHz
Frame rate : 31.250 FPS (1536 SPF)
Bit depth : 16 bits
Compression mode : Lossy
Stream size : 357 MiB (2%)
Title : Tinker.Bell.2008.1080p.BluRay.REMUX.AVC.LPCM.5.1-FGT
Language : Finnish
Service kind : Complete Main
Default : No
Forced : No

Audio #5
ID : 6
Format : AC-3
Format/Info : Audio Coding 3
Commercial name : Dolby Digital
Codec ID : A_AC3
Duration : 1 h 17 min
Bit rate mode : Constant
Bit rate : 640 kb/s
Channel(s) : 6 channels
Channel layout : L R C LFE Ls Rs
Sampling rate : 48.0 kHz
Frame rate : 31.250 FPS (1536 SPF)
Bit depth : 16 bits
Compression mode : Lossy
Stream size : 357 MiB (2%)
Title : Tinker.Bell.2008.1080p.BluRay.REMUX.AVC.LPCM.5.1-FGT
Language : Norwegian
Service kind : Complete Main
Default : No
Forced : No

Audio #6
ID : 7
Format : AC-3
Format/Info : Audio Coding 3
Commercial name : Dolby Digital
Codec ID : A_AC3
Duration : 1 h 17 min
Bit rate mode : Constant
Bit rate : 640 kb/s
Channel(s) : 6 channels
Channel layout : L R C LFE Ls Rs
Sampling rate : 48.0 kHz
Frame rate : 31.250 FPS (1536 SPF)
Bit depth : 16 bits
Compression mode : Lossy
Stream size : 357 MiB (2%)
Title : Tinker.Bell.2008.1080p.BluRay.REMUX.AVC.LPCM.5.1-FGT
Language : Danish
Service kind : Complete Main
Default : No
Forced : No

Audio #7
ID : 8
Format : AC-3
Format/Info : Audio Coding 3
Commercial name : Dolby Digital
Codec ID : A_AC3
Duration : 1 h 17 min
Bit rate mode : Constant
Bit rate : 640 kb/s
Channel(s) : 6 channels
Channel layout : L R C LFE Ls Rs
Sampling rate : 48.0 kHz
Frame rate : 31.250 FPS (1536 SPF)
Bit depth : 16 bits
Compression mode : Lossy
Stream size : 357 MiB (2%)
Title : Tinker.Bell.2008.1080p.BluRay.REMUX.AVC.LPCM.5.1-FGT
Language : Polish
Service kind : Complete Main
Default : No
Forced : No

Audio #8
ID : 9
Format : AC-3
Format/Info : Audio Coding 3
Commercial name : Dolby Digital
Codec ID : A_AC3
Duration : 1 h 17 min
Bit rate mode : Constant
Bit rate : 640 kb/s
Channel(s) : 6 channels
Channel layout : L R C LFE Ls Rs
Sampling rate : 48.0 kHz
Frame rate : 31.250 FPS (1536 SPF)
Bit depth : 16 bits
Compression mode : Lossy
Stream size : 357 MiB (2%)
Title : Tinker.Bell.2008.1080p.BluRay.REMUX.AVC.LPCM.5.1-FGT
Language : Arabic
Service kind : Complete Main
Default : No
Forced : No

Audio #9
ID : 10
Format : AC-3
Format/Info : Audio Coding 3
Commercial name : Dolby Digital
Codec ID : A_AC3
Duration : 1 h 17 min
Bit rate mode : Constant
Bit rate : 640 kb/s
Channel(s) : 6 channels
Channel layout : L R C LFE Ls Rs
Sampling rate : 48.0 kHz
Frame rate : 31.250 FPS (1536 SPF)
Bit depth : 16 bits
Compression mode : Lossy
Stream size : 357 MiB (2%)
Title : Tinker.Bell.2008.1080p.BluRay.REMUX.AVC.LPCM.5.1-FGT
Language : Icelandic
Service kind : Complete Main
Default : No
Forced : No

Text #1
ID : 11
Format : PGS
Muxing mode : zlib
Codec ID : S_HDMV/PGS
Codec ID/Info : Picture based subtitle format used on BDs/HD-DVDs
Duration : 1 h 9 min
Bit rate : 32.4 kb/s
Count of elements : 1474
Stream size : 16.1 MiB (0%)
Language : English
Default : Yes
Forced : No

Text #2
ID : 12
Format : PGS
Muxing mode : zlib
Codec ID : S_HDMV/PGS
Codec ID/Info : Picture based subtitle format used on BDs/HD-DVDs
Duration : 1 h 9 min
Bit rate : 29.6 kb/s
Count of elements : 1474
Stream size : 14.7 MiB (0%)
Language : Norwegian
Default : No
Forced : No

Text #3
ID : 13
Format : PGS
Muxing mode : zlib
Codec ID : S_HDMV/PGS
Codec ID/Info : Picture based subtitle format used on BDs/HD-DVDs
Duration : 1 h 12 min
Bit rate : 37.4 kb/s
Count of elements : 1958
Stream size : 19.4 MiB (0%)
Language : English
Default : No
Forced : No

Text #4
ID : 14
Format : PGS
Muxing mode : zlib
Codec ID : S_HDMV/PGS
Codec ID/Info : Picture based subtitle format used on BDs/HD-DVDs
Duration : 1 h 9 min
Bit rate : 30.8 kb/s
Count of elements : 1476
Stream size : 15.3 MiB (0%)
Language : Swedish
Default : No
Forced : No

Text #5
ID : 15
Format : PGS
Muxing mode : zlib
Codec ID : S_HDMV/PGS
Codec ID/Info : Picture based subtitle format used on BDs/HD-DVDs
Duration : 1 h 9 min
Bit rate : 30.3 kb/s
Count of elements : 1477
Stream size : 15.1 MiB (0%)
Language : Danish
Default : No
Forced : No

Text #6
ID : 16
Format : PGS
Muxing mode : zlib
Codec ID : S_HDMV/PGS
Codec ID/Info : Picture based subtitle format used on BDs/HD-DVDs
Duration : 1 h 9 min
Bit rate : 30.9 kb/s
Count of elements : 1470
Stream size : 15.4 MiB (0%)
Language : Finnish
Default : No
Forced : No

Text #7
ID : 17
Format : PGS
Muxing mode : zlib
Codec ID : S_HDMV/PGS
Codec ID/Info : Picture based subtitle format used on BDs/HD-DVDs
Duration : 1 h 9 min
Bit rate : 29.8 kb/s
Count of elements : 1476
Stream size : 14.8 MiB (0%)
Language : Polish
Default : No
Forced : No

Text #8
ID : 18
Format : PGS
Muxing mode : zlib
Codec ID : S_HDMV/PGS
Codec ID/Info : Picture based subtitle format used on BDs/HD-DVDs
Duration : 1 h 9 min
Bit rate : 18.2 kb/s
Count of elements : 1476
Stream size : 9.04 MiB (0%)
Language : Arabic
Default : No
Forced : No

Text #9
ID : 19
Format : PGS
Muxing mode : zlib
Codec ID : S_HDMV/PGS
Codec ID/Info : Picture based subtitle format used on BDs/HD-DVDs
Duration : 1 h 9 min
Bit rate : 34.6 kb/s
Count of elements : 1476
Stream size : 17.2 MiB (0%)
Language : Icelandic
Default : No
Forced : No

Text #10
ID : 20
Format : PGS
Muxing mode : zlib
Codec ID : S_HDMV/PGS
Codec ID/Info : Picture based subtitle format used on BDs/HD-DVDs
Duration : 63 ms
Bit rate : 8 888 b/s
Count of elements : 2
Stream size : 70.0 Bytes (0%)
Language : Norwegian
Default : No
Forced : No

Text #11
ID : 21
Format : PGS
Muxing mode : zlib
Codec ID : S_HDMV/PGS
Codec ID/Info : Picture based subtitle format used on BDs/HD-DVDs
Duration : 6 s 903 ms
Bit rate : 12.1 kb/s
Count of elements : 2
Stream size : 10.2 KiB (0%)
Language : Danish
Default : No
Forced : No

Text #12
ID : 22
Format : PGS
Muxing mode : zlib
Codec ID : S_HDMV/PGS
Codec ID/Info : Picture based subtitle format used on BDs/HD-DVDs
Duration : 6 s 903 ms
Bit rate : 12.1 kb/s
Count of elements : 2
Stream size : 10.2 KiB (0%)
Language : Danish
Default : No
Forced : No

Text #13
ID : 23
Format : PGS
Muxing mode : zlib
Codec ID : S_HDMV/PGS
Codec ID/Info : Picture based subtitle format used on BDs/HD-DVDs
Duration : 6 s 903 ms
Bit rate : 8 309 b/s
Count of elements : 2
Stream size : 7.00 KiB (0%)
Language : Swedish
Default : No
Forced : No

Text #14
ID : 24
Format : PGS
Muxing mode : zlib
Codec ID : S_HDMV/PGS
Codec ID/Info : Picture based subtitle format used on BDs/HD-DVDs
Duration : 6 s 903 ms
Bit rate : 8 309 b/s
Count of elements : 2
Stream size : 7.00 KiB (0%)
Language : Swedish
Default : No
Forced : No

Text #15
ID : 25
Format : PGS
Muxing mode : zlib
Codec ID : S_HDMV/PGS
Codec ID/Info : Picture based subtitle format used on BDs/HD-DVDs
Duration : 6 s 903 ms
Bit rate : 11.2 kb/s
Count of elements : 2
Stream size : 9.44 KiB (0%)
Language : Finnish
Default : No
Forced : No

Text #16
ID : 26
Format : PGS
Muxing mode : zlib
Codec ID : S_HDMV/PGS
Codec ID/Info : Picture based subtitle format used on BDs/HD-DVDs
Duration : 6 s 903 ms
Bit rate : 11.2 kb/s
Count of elements : 2
Stream size : 9.44 KiB (0%)
Language : Finnish
Default : No
Forced : No

Text #17
ID : 27
Format : PGS
Muxing mode : zlib
Codec ID : S_HDMV/PGS
Codec ID/Info : Picture based subtitle format used on BDs/HD-DVDs
Duration : 6 s 903 ms
Bit rate : 9 818 b/s
Count of elements : 2
Stream size : 8.27 KiB (0%)
Language : Polish
Default : No
Forced : No

Text #18
ID : 28
Format : PGS
Muxing mode : zlib
Codec ID : S_HDMV/PGS
Codec ID/Info : Picture based subtitle format used on BDs/HD-DVDs
Duration : 6 s 903 ms
Bit rate : 9 818 b/s
Count of elements : 2
Stream size : 8.27 KiB (0%)
Language : Polish
Default : No
Forced : No

Text #19
ID : 29
Format : PGS
Muxing mode : zlib
Codec ID : S_HDMV/PGS
Codec ID/Info : Picture based subtitle format used on BDs/HD-DVDs
Duration : 6 s 903 ms
Bit rate : 4 913 b/s
Count of elements : 2
Stream size : 4.14 KiB (0%)
Language : Arabic
Default : No
Forced : No

Text #20
ID : 30
Format : PGS
Muxing mode : zlib
Codec ID : S_HDMV/PGS
Codec ID/Info : Picture based subtitle format used on BDs/HD-DVDs
Duration : 6 s 903 ms
Bit rate : 4 913 b/s
Count of elements : 2
Stream size : 4.14 KiB (0%)
Language : Arabic
Default : No
Forced : No

Text #21
ID : 31
Format : PGS
Muxing mode : zlib
Codec ID : S_HDMV/PGS
Codec ID/Info : Picture based subtitle format used on BDs/HD-DVDs
Duration : 6 s 903 ms
Bit rate : 10.8 kb/s
Count of elements : 2
Stream size : 9.08 KiB (0%)
Language : Icelandic
Default : No
Forced : No

Text #22
ID : 32
Format : PGS
Muxing mode : zlib
Codec ID : S_HDMV/PGS
Codec ID/Info : Picture based subtitle format used on BDs/HD-DVDs
Duration : 6 s 903 ms
Bit rate : 10.8 kb/s
Count of elements : 2
Stream size : 9.08 KiB (0%)
Language : Icelandic
Default : No
Forced : No

Menu
00:00:00.000 : en:Chapter 01
00:02:54.841 : en:Chapter 02
00:08:16.120 : en:Chapter 03
00:14:30.160 : en:Chapter 04
00:20:30.520 : en:Chapter 05
00:24:27.883 : en:Chapter 06
00:29:51.372 : en:Chapter 07
00:35:04.102 : en:Chapter 08
00:40:58.330 : en:Chapter 09
00:43:01.954 : en:Chapter 10
00:47:15.874 : en:Chapter 11
00:52:47.372 : en:Chapter 12
00:56:39.646 : en:Chapter 13
01:00:05.059 : en:Chapter 14
01:04:46.883 : en:Chapter 15
01:10:35.397 : en:Chapter 16



上传的附件:
最新回复 (0)
返回