[GSCQ]百战宝枪 Winchester.73.1950.1080p.BluRay.REMUX.AVC.DTS-HD.MA.2.0-FGT 15GB 更早 欧美 剧情

大圣孙悟空 2019-03-14 16:00 7260

Winchester.73.1950.1080p.BluRay.REMUX.AVC.DTS-HD.MA.2.0-FGT


◎译  名 百战宝枪 / 无敌连环枪 / 温彻斯特73年 / 西域神枪

◎片  名 Winchester '73

◎年  代 1950

◎产  地 美国

◎类  别 西部

◎语  言 英语

◎上映日期 1950-07-12

◎IMDb评分 7.7/10 from 14957 users

◎IMDb链接 http://www.imdb.com/title/tt0043137

◎豆瓣评分 7.5/10 from 573 users

◎豆瓣链接 https://movie.douban.com/subject/1294076/

◎片  长 92 分钟

◎导  演 Anthony Mann

◎编  剧 Robert L. Richards / Borden Chase

◎主  演 James Stewart

      Shelley Winters

      Dan Duryea


◎标  签 美国 | 西部 | 西部片 | 安东尼·曼 | JamesStewart | 1950s | 1950 | Anthony_Mann


◎简  介  


  《温彻斯特,73年》是50年代由詹姆士·斯图尔特与安东尼·曼合作颇负盛名的5部西部片中最棒的一部(其余4部依次是《蜿蜒的河》(Bend of the River)、《来自莱若迈的男人》(The Man From Laramie)、《赤裸裸的刺激》(The Naked Spur)、《远乡》(The Far Country),被认为是刺激西部片票房回升的主要功臣。该片还开了一道历史的先河:由该片起,明星们不再靠领取薪水(尽管高得让人咋舌)过活,而趋于影片票房利润分成。这招儿让詹姆士·斯图尔特挣了大钱,也永远地改变了好莱坞的交易方式。 影片本身也令人印象深刻。安东尼·曼手法尖锐而富于心理剖析,刻画了一位陷入扑朔迷离中的强悍男人。牛仔林·麦克达姆(詹姆士·斯图尔特饰)为找回一支宝贵的温彻斯特1873年造连发步枪,一路追踪,由此开始了一连串的历险。最后一幕极其壮观:悬崖绝壁间,两人拔枪对射,壮阔山色也每每令人流连不已。《温彻斯特,73年》使詹姆士·斯图尔特名列十大票房榜,而此前电影公司竟怀疑他的表演才能。就像真正的1873年造温彻斯特步枪,《温彻斯特,73年》也是“千年之唯一”。



Video
ID : 1
Format : AVC
Format/Info : Advanced Video Codec
Format profile : High@L4.1
Format settings : CABAC / 2 Ref Frames
Format settings, CABAC : Yes
Format settings, ReFrames : 2 frames
Codec ID : V_MPEG4/ISO/AVC
Duration : 1 h 32 min
Bit rate mode : Variable
Bit rate : 22.9 Mb/s
Maximum bit rate : 30.2 Mb/s
Width : 1 920 pixels
Height : 1 080 pixels
Display aspect ratio : 16:9
Frame rate mode : Constant
Frame rate : 23.976 (24000/1001) FPS
Color space : YUV
Chroma subsampling : 4:2:0
Bit depth : 8 bits
Scan type : Progressive
Bits/(Pixel*Frame) : 0.462
Stream size : 14.8 GiB (93%)
Title : Winchester.73.1950.1080p.BluRay.REMUX.AVC.DTS-HD.MA.2.0-FGT
Language : English
Default : No
Forced : No

Audio #1
ID : 2
Format : DTS XLL
Format/Info : Digital Theater Systems
Commercial name : DTS-HD Master Audio
Codec ID : A_DTS
Duration : 1 h 32 min
Bit rate mode : Variable
Bit rate : 937 kb/s
Channel(s) : 2 channels
Sampling rate : 48.0 kHz
Frame rate : 93.750 FPS (512 SPF)
Bit depth : 16 bits
Compression mode : Lossless
Stream size : 619 MiB (4%)
Title : Winchester.73.1950.1080p.BluRay.REMUX.AVC.DTS-HD.MA.2.0-FGT
Language : English
Default : Yes
Forced : No

Audio #2
ID : 3
Format : DTS
Format/Info : Digital Theater Systems
Codec ID : A_DTS
Duration : 1 h 32 min
Bit rate mode : Constant
Bit rate : 768 kb/s
Channel(s) : 2 channels
Channel layout : Lt Rt
Sampling rate : 48.0 kHz
Frame rate : 93.750 FPS (512 SPF)
Bit depth : 16 bits
Compression mode : Lossy
Stream size : 508 MiB (3%)
Title : Winchester.73.1950.1080p.BluRay.REMUX.AVC.DTS-HD.MA.2.0-FGT
Language : English
Default : No
Forced : No

Menu
00:00:00.000 : en:Chapter 01
00:01:19.120 : en:Chapter 02
00:10:49.815 : en:Chapter 03
00:21:09.685 : en:Chapter 04
00:33:19.622 : en:Chapter 05
00:44:10.773 : en:Chapter 06
00:49:48.485 : en:Chapter 07
00:56:27.425 : en:Chapter 08
01:02:09.100 : en:Chapter 09
01:11:42.298 : en:Chapter 10
01:21:31.261 : en:Chapter 11
01:32:04.810 : en:Chapter 12



上传的附件:
最新回复 (0)
返回