[GSCQ]爱情买卖[中字]Love.for.Sale.2018.1080p.WEBRip.X264-OUTFLATE 2.75GB 2018 印度 剧情 中文字幕

大圣孙悟空 2019-03-14 15:59 8808

Love.for.Sale.2018.1080p.WEBRip.X264-OUTFLATE


◎译  名 爱情买卖

◎片  名 Love For Sale

◎年  代 2018

◎产  地 印尼 Indonesia

◎类  别 剧情

◎语  言 印尼语 Bahasa Indonesia

◎上映日期 2018-03-15(印尼)

◎IMDb评分 7.7/10 from 356 users

◎IMDb链接 http://www.imdb.com/title/tt8065796

◎导  演 Andibachtiar Yusuf

◎编  剧 Andibachtiar Yusuf

◎主  演 Gading Marten

      Della Dartyan

◎简  介  


  Richard Achmad (Gading Marten) is too long to live alone. People nickname him acute single. One day his hang out friends betting : "Two more weeks I'll get married, take your girlfriend or your pride at stake," As the elder in his group, Richard is challenged. He who always tells about his lovers and give advice to his friends, does not want to be embarrassed. All efforts are made: old female friends who are generally married or even forgotten, friend connections that may be available to be invited to accompany him, to the dating site which then bring himself with Arini Kusuma (Della Dartyan). Administrative mistakes made Richard forced to let Arini linger with him, for at least 45 days, the duration of the contract. Slowly the seeds of romance grow. Richard is impressed with Arini's understanding of him, in his hobby even on his appetite. He falls in love. Something that has not happened for the past 20 years. Richard propose to Arini to be forever with him


Video
ID : 1
Format : AVC
Format/Info : Advanced Video Codec
Format profile : High@L4.1
Format settings : CABAC / 5 Ref Frames
Format settings, CABAC : Yes
Format settings, ReFrames : 5 frames
Codec ID : V_MPEG4/ISO/AVC
Duration : 1 h 40 min
Bit rate : 3 776 kb/s
Width : 1 920 pixels
Height : 816 pixels
Display aspect ratio : 2.35:1
Frame rate mode : Constant
Frame rate : 24.000 FPS
Color space : YUV
Chroma subsampling : 4:2:0
Bit depth : 8 bits
Scan type : Progressive
Bits/(Pixel*Frame) : 0.100
Stream size : 2.65 GiB (97%)
Writing library : x264 core 157 r2935 545de2f
Encoding settings : cabac=1 / ref=5 / deblock=1:-3:-3 / analyse=0x3:0x113 / me=hex / subme=8 / psy=1 / psy_rd=1.00:0.00 / mixed_ref=1 / me_range=16 / chroma_me=1 / trellis=2 / 8x8dct=1 / cqm=0 / deadzone=21,11 / fast_pskip=1 / chroma_qp_offset=-2 / threads=12 / lookahead_threads=2 / sliced_threads=0 / nr=0 / decimate=1 / interlaced=0 / bluray_compat=0 / constrained_intra=0 / bframes=3 / b_pyramid=2 / b_adapt=1 / b_bias=0 / direct=3 / weightb=1 / open_gop=0 / weightp=2 / keyint=250 / keyint_min=24 / scenecut=40 / intra_refresh=0 / rc_lookahead=50 / rc=crf / mbtree=1 / crf=19.9 / qcomp=0.60 / qpmin=0 / qpmax=69 / qpstep=4 / ip_ratio=1.40 / aq=1:1.00
Language : English
Default : Yes
Forced : No

Audio
ID : 2
Format : E-AC-3
Format/Info : Enhanced AC-3
Commercial name : Dolby Digital Plus
Codec ID : A_EAC3
Duration : 1 h 40 min
Bit rate mode : Constant
Bit rate : 128 kb/s
Channel(s) : 2 channels
Channel layout : L R
Sampling rate : 48.0 kHz
Frame rate : 31.250 FPS (1536 SPF)
Compression mode : Lossy
Stream size : 92.1 MiB (3%)
Title : Indonesian
Language : Indonesian
Service kind : Complete Main
Default : Yes
Forced : No

Text #1
ID : 3
Format : UTF-8
Codec ID : S_TEXT/UTF8
Codec ID/Info : UTF-8 Plain Text
Duration : 1 h 39 min
Bit rate : 59 b/s
Count of elements : 1444
Stream size : 43.7 KiB (0%)
Title : English
Language : English
Default : Yes
Forced : No

Text #2
ID : 4
Format : UTF-8
Codec ID : S_TEXT/UTF8
Codec ID/Info : UTF-8 Plain Text
Duration : 1 h 40 min
Bit rate : 70 b/s
Count of elements : 1727
Stream size : 51.4 KiB (0%)
Title : Indonesian (SDH)
Language : Indonesian
Default : No
Forced : No

Text #3
ID : 5
Format : UTF-8
Codec ID : S_TEXT/UTF8
Codec ID/Info : UTF-8 Plain Text
Duration : 1 h 39 min
Bit rate : 52 b/s
Count of elements : 1669
Stream size : 38.0 KiB (0%)
Title : Chinese (Simplified)
Language : Chinese
Default : No
Forced : No

Text #4
ID : 6
Format : UTF-8
Codec ID : S_TEXT/UTF8
Codec ID/Info : UTF-8 Plain Text
Duration : 1 h 39 min
Bit rate : 53 b/s
Count of elements : 1517
Stream size : 38.8 KiB (0%)
Title : Chinese (Traditional)
Language : Chinese
Default : No
Forced : No



上传的附件:
最新回复 (1)
  • 佳佳 2019-03-14 22:13
    2
    谢谢分享
返回