[GSCQ]青春残酷物语 Cruel.Story.of.Youth.1960.1080p.BluRay.x264-MELiTE 6.56GB 更早 日本 剧情

aostterm 2019-02-11 01:24 2316

Cruel.Story.of.Youth.1960.1080p.BluRay.x264-MELiTE


◎译  名 青春残酷物语 / A Story of the Cruelties of Youth

◎片  名 青春残酷物語

◎年  代 1960

◎产  地 日本

◎类  别 剧情

◎语  言 日语

◎上映日期 1960-06-03

◎IMDb评分 7.0/10 from 1714 users

◎IMDb链接 http://www.imdb.com/title/tt0054286

◎豆瓣评分 7.3/10 from 5055 users

◎豆瓣链接 https://movie.douban.com/subject/1303691/

◎片  长 96 分钟

◎导  演 大岛渚

◎编  剧 大岛渚

◎主  演 桑野美雪

      川津祐介

      久我美子



◎标  签 大岛渚 | 日本 | 日本电影 | 青春 | 情色 | 青春残酷物语 | 1960s | 1960


◎简  介  


  真琴(桑野美雪 饰)是个叛逆的女高中生,一次搭便车时她险被车主非礼,幸好被路过的藤井清(川津祐介 饰)救下。次日二人再次相遇,相约到水边游玩,然而阿清却粗暴对待真琴并企图强暴她。事后真琴并没有迁怒于阿清,还给他留下了联系方式。

阿清却迟迟没有联系真琴,因为他与一个有夫之妇有染。伤心的真琴在酒吧里借酒消愁,遭到几个小混混骚扰。阿清赶来救下真琴,于是二人再度和好,并决定同居。因为把钱都给了小混混,阿清交不起学费,他便决定和真琴联手,敲诈那些愿意搭载真琴的中年男人,二人屡屡得手。不久后真琴怀孕,阿清执意要她去堕胎。为了筹钱,阿清只好又和有夫之妇上床,另一方面,郁郁寡欢的真琴和另一个男人发生关系。这对恋人都不知道,会有怎么样的命运等着他们……



Video
ID : 1
Format : AVC
Format/Info : Advanced Video Codec
Format profile : High@L4.1
Format settings : CABAC / 5 Ref Frames
Format settings, CABAC : Yes
Format settings, ReFrames : 5 frames
Muxing mode : Header stripping
Codec ID : V_MPEG4/ISO/AVC
Duration : 1 h 36 min
Bit rate : 9 065 kb/s
Width : 1 920 pixels
Height : 808 pixels
Display aspect ratio : 2.40:1
Frame rate mode : Constant
Frame rate : 23.976 FPS
Color space : YUV
Chroma subsampling : 4:2:0
Bit depth : 8 bits
Scan type : Progressive
Bits/(Pixel*Frame) : 0.244
Stream size : 6.00 GiB (91%)
Writing library : x264 core 148 r2638 7599210
Encoding settings : cabac=1 / ref=5 / deblock=1:0:0 / analyse=0x3:0x113 / me=umh / subme=7 / psy=1 / psy_rd=1.00:0.00 / mixed_ref=1 / me_range=16 / chroma_me=1 / trellis=1 / 8x8dct=1 / cqm=0 / deadzone=21,11 / fast_pskip=0 / chroma_qp_offset=-2 / threads=12 / lookahead_threads=2 / sliced_threads=0 / nr=0 / decimate=1 / interlaced=0 / bluray_compat=0 / constrained_intra=0 / bframes=3 / b_pyramid=2 / b_adapt=1 / b_bias=0 / direct=1 / weightb=1 / open_gop=0 / weightp=2 / keyint=250 / keyint_min=23 / scenecut=40 / intra_refresh=0 / rc_lookahead=40 / rc=2pass / mbtree=1 / bitrate=9065 / ratetol=1.0 / qcomp=0.60 / qpmin=0 / qpmax=69 / qpstep=4 / cplxblur=20.0 / qblur=0.5 / ip_ratio=1.40 / aq=1:1.00
Language : English
Default : Yes
Forced : No

Audio
ID : 2
Format : AC-3
Format/Info : Audio Coding 3
Commercial name : Dolby Digital
Muxing mode : Header stripping
Codec ID : A_AC3
Duration : 1 h 36 min
Bit rate mode : Constant
Bit rate : 640 kb/s
Channel(s) : 1 channel
Channel layout : C
Sampling rate : 48.0 kHz
Frame rate : 31.250 FPS (1536 SPF)
Bit depth : 16 bits
Compression mode : Lossy
Stream size : 443 MiB (7%)
Service kind : Complete Main
Language : Japanese
Default : Yes
Forced : No

Text
ID : 3
Format : UTF-8
Codec ID : S_TEXT/UTF8
Codec ID/Info : UTF-8 Plain Text
Language : English
Default : Yes
Forced : No



上传的附件:
最新回复 (0)
返回