[GSCQ]八月照相馆 Christmas.in.August.1998.1080p.BluRay.x264-GiMCHi 6.56GB 更早 韩国 爱情

DarkMeridian 2019-02-11 01:22 2556

Christmas.in.August.1998.1080p.BluRay.x264-GiMCHi


◎译  名 八月照相馆 / Christmas in August / Palwolui Christmas / 八月圣诞节

◎片  名 8월의 크리스마스

◎年  代 1998

◎产  地 韩国

◎类  别 剧情 / 爱情

◎语  言 韩语

◎上映日期 1998-01-24(韩国)

◎IMDb评分 7.7/10 from 3008 users

◎IMDb链接 http://www.imdb.com/title/tt0140825

◎豆瓣评分 7.9/10 from 46488 users

◎豆瓣链接 https://movie.douban.com/subject/1306471/

◎片  长 97 分钟

◎导  演 许秦豪 Jin-ho Hur

◎编  剧 许秦豪 Jin-ho Hur / 吴尚奥 / Dong-hwan Shin

◎主  演 韩石圭 Suk-kyu Han

      沈银河 Eun-ha Shim

      申久 Goo Shin

      李瀚伟 Han-wi Lee

      全美善 Mi-seon Jeon

      吴智慧 Ji-hye Oh

◎简  介  


  在汉城郊外,独自一人的青年余永元(韩石圭饰),经营着一家从父亲接过来的小照相馆。他时常带着微笑,坦然面对生活,照相馆里挂着不同的照片。

女交警金德琳(沈银河饰)由于工作的关系,每天都要到照相馆冲洗照片,由此认识了老实的永元。有时候她会抱怨照相馆门开得太晚,显得那么天真可爱,他们一起撑伞散步,讲些琐事,日久生情,永元与德琳都发觉自己不可收拾地爱上了对方。

但永元却有着难言之隐,不能直诉给德琳。季节更替,八月过去。见不到永元的德琳写信给他,塞在照相馆的门缝中。冬天的雪地里,德琳在闭门的照相馆橱柜中,见到自己的照片……


◎获奖情况  


  第3届釜山国际电影节(1998)

  国际影评人协会奖 特别提及 许秦豪


Video
ID : 1
Format : AVC
Format/Info : Advanced Video Codec
Format profile : High@L4.1
Format settings : CABAC / 4 Ref Frames
Format settings, CABAC : Yes
Format settings, ReFrames : 4 frames
Codec ID : V_MPEG4/ISO/AVC
Duration : 1 h 36 min
Bit rate : 8 194 kb/s
Width : 1 920 pixels
Height : 1 040 pixels
Display aspect ratio : 1.85:1
Frame rate mode : Constant
Frame rate : 23.976 (24000/1001) FPS
Color space : YUV
Chroma subsampling : 4:2:0
Bit depth : 8 bits
Scan type : Progressive
Bits/(Pixel*Frame) : 0.171
Stream size : 5.41 GiB (82%)
Writing library : x264 core 142 r2409 d6b4e63
Encoding settings : cabac=1 / ref=4 / deblock=1:0:0 / analyse=0x3:0x133 / me=umh / subme=7 / psy=1 / psy_rd=1.00:0.00 / mixed_ref=1 / me_range=16 / chroma_me=1 / trellis=1 / 8x8dct=1 / cqm=0 / deadzone=21,11 / fast_pskip=0 / chroma_qp_offset=-2 / threads=12 / lookahead_threads=2 / sliced_threads=0 / nr=0 / decimate=1 / interlaced=0 / bluray_compat=0 / constrained_intra=0 / bframes=3 / b_pyramid=2 / b_adapt=2 / b_bias=0 / direct=3 / weightb=1 / open_gop=0 / weightp=2 / keyint=240 / keyint_min=23 / scenecut=40 / intra_refresh=0 / rc_lookahead=50 / rc=2pass / mbtree=1 / bitrate=8194 / ratetol=1.0 / qcomp=0.60 / qpmin=0 / qpmax=69 / qpstep=4 / cplxblur=20.0 / qblur=0.5 / ip_ratio=1.40 / aq=1:1.00
Language : English
Default : Yes
Forced : No

Audio
ID : 2
Format : DTS
Format/Info : Digital Theater Systems
Codec ID : A_DTS
Duration : 1 h 36 min
Bit rate mode : Constant
Bit rate : 1 509 kb/s
Channel(s) : 6 channels
Channel layout : C L R Ls Rs LFE
Sampling rate : 48.0 kHz
Frame rate : 93.750 FPS (512 SPF)
Bit depth : 24 bits
Compression mode : Lossy
Stream size : 1.02 GiB (16%)
Language : Korean
Default : Yes
Forced : No

Text
ID : 3
Format : UTF-8
Codec ID : S_TEXT/UTF8
Codec ID/Info : UTF-8 Plain Text
Language : English
Default : No
Forced : No



上传的附件:
最新回复 (0)
返回