[GSCQ]寡妇联盟 Widows.2018.1080p.BluRay.x264.TrueHD.7.1.Atmos-FGT 13.28GB 2018 欧美 惊悚

DarkMeridian 2019-02-11 01:20 2760

Widows.2018.1080p.BluRay.x264.TrueHD.7.1.Atmos-FGT

◎译  名 寡妇联盟 / 寡妇(台) / 寡妇劫案

◎片  名 Widows

◎年  代 2018

◎产  地 英国

◎类  别 剧情 / 惊悚 / 犯罪

◎语  言 英语

◎上映日期 2018-09-09(多伦多电影节) / 2018-11-16(美国)

◎IMDb评分 7.3/10 from 29550 users

◎IMDb链接 http://www.imdb.com/title/tt4218572

◎豆瓣评分 6.8/10 from 1613 users

◎豆瓣链接 https://movie.douban.com/subject/26268602/

◎片  长 128分钟

◎导  演 史蒂夫·麦奎因 Steve McQueen

◎编  剧 史蒂夫·麦奎因 Steve McQueen / 吉莉安·弗琳 Gillian Flynn / Lynda La Plante

◎主  演 维奥拉·戴维斯 Viola Davis

      连姆·尼森 Liam Neeson

      乔·博恩瑟 Jon Bernthal

      科林·法瑞尔 Colin Farrell

      伊丽莎白·德比茨基 Elizabeth Debicki

      米歇尔·罗德里格兹 Michelle Rodriguez

      罗伯特·杜瓦尔 Robert Duvall

      安德烈·霍兰 Andre Holland

      丹尼尔·卡卢亚 Daniel Kaluuya

      曼努埃尔·加西亚-鲁尔福 Manuel Garcia-Rulfo

      卢卡斯·哈斯 Lukas Haas

      凯莉·库恩 Carrie Coon

      Cynthia Erivo



◎标  签 犯罪 | 2018 | 美国 | 剧情 | 英国 | 动作 | 女性 | 惊悚


◎简  介  


  Steve McQueen的下一部片将继续和制片公司New Regency合作,根据80年代英国迷你剧集"Widows“改编犯罪抢劫电影,主角是四个死去的抢劫犯的遗孀,她们会完成丈夫未完成的抢劫,前期筹备将会在年前完成。


◎获奖情况  


  第72届英国电影学院奖(2019)

  电影奖 最佳女主角(提名) 维奥拉·戴维斯


  第21届美国服装设计工会奖(2019)

  现代电影最佳服装设计(提名) 珍妮·伊根


  第6届美国化妆及发型设计工会奖(2019)

  电影类最佳现代戏化妆(提名)

  电影类最佳现代戏发型设计(提名)


  第24届美国评论家选择电影奖(2019)

  最佳群戏(提名)

  最佳动作片(提名)

  最佳剪辑(提名)


  第23届金卫星奖(2019)

  电影部门 最佳剧情片(提名)

  电影部门 剧情片最佳女主角(提名) 维奥拉·戴维斯

  电影部门 最佳原创配乐(提名)

  电影部门 最佳剪辑(提名)


  第53届美国国家影评人协会奖(2019)

  最佳男配角(提名) 布莱恩·泰里·亨利

  最佳女配角(提名) 伊丽莎白·德比茨基


  第17届华盛顿影评人协会奖(2018)

  最佳群戏(提名)

  最佳剪辑(提名)

  最佳原创配乐(提名) 汉斯·季默


  第39届伦敦影评人协会奖(2019)

  年度编剧(提名) 史蒂夫·麦奎因 / 吉莉安·弗琳

  年度男配角(提名) 丹尼尔·卡卢亚

  年度女配角(提名) 伊丽莎白·德比茨基

  年度英国/爱尔兰男演员(提名) 丹尼尔·卡卢亚


  第44届洛杉矶影评人协会奖(2018)

  最佳女配角(提名) 伊丽莎白·德比茨基


  第31届芝加哥影评人协会奖(2018)

  最佳女配角(提名) 伊丽莎白·德比茨基

  最佳剪辑(提名) 乔·沃克


  第22届美国在线影评人协会奖(2019)

  最佳女配角(提名) 伊丽莎白·德比茨基

  最佳改编剧本(提名) 史蒂夫·麦奎因 / 吉莉安·弗琳

  最佳剪辑(提名)


Video
ID : 1
Format : AVC
Format/Info : Advanced Video Codec
Format profile : High@L4.1
Format settings : CABAC / 5 Ref Frames
Format settings, CABAC : Yes
Format settings, ReFrames : 5 frames
Codec ID : V_MPEG4/ISO/AVC
Duration : 2 h 9 min
Bit rate : 9 362 kb/s
Width : 1 920 pixels
Height : 808 pixels
Display aspect ratio : 2.40:1
Frame rate mode : Constant
Frame rate : 23.976 (24000/1001) FPS
Color space : YUV
Chroma subsampling : 4:2:0
Bit depth : 8 bits
Scan type : Progressive
Bits/(Pixel*Frame) : 0.252
Stream size : 8.47 GiB (64%)
Title : Widows.2018.1080p.BluRay.x264.TrueHD.7.1.Atmos-FGT
Writing library : x264 core 157 r2935 545de2f
Encoding settings : cabac=1 / ref=5 / deblock=1:-3:-3 / analyse=0x3:0x113 / me=umh / subme=8 / psy=1 / psy_rd=1.00:0.00 / mixed_ref=1 / me_range=16 / chroma_me=1 / trellis=1 / 8x8dct=1 / cqm=0 / deadzone=21,11 / fast_pskip=1 / chroma_qp_offset=-2 / threads=25 / lookahead_threads=4 / sliced_threads=0 / nr=0 / decimate=1 / interlaced=0 / bluray_compat=0 / constrained_intra=0 / bframes=3 / b_pyramid=2 / b_adapt=1 / b_bias=0 / direct=3 / weightb=1 / open_gop=0 / weightp=2 / keyint=250 / keyint_min=23 / scenecut=40 / intra_refresh=0 / rc_lookahead=50 / rc=2pass / mbtree=1 / bitrate=9362 / ratetol=1.0 / qcomp=0.60 / qpmin=0 / qpmax=69 / qpstep=4 / cplxblur=20.0 / qblur=0.5 / ip_ratio=1.40 / aq=1:1.00
Language : English
Default : Yes
Forced : No

Audio #1
ID : 2
Format : MLP FBA 16-ch
Format/Info : Meridian Lossless Packing FBA with 16-channel presentation
Commercial name : Dolby TrueHD with Dolby Atmos
Codec ID : A_TRUEHD
Duration : 2 h 9 min
Bit rate mode : Variable
Bit rate : 4 218 kb/s
Maximum bit rate : 7 818 kb/s
Channel(s) : 8 channels
Channel layout : L R C LFE Ls Rs Lb Rb
Sampling rate : 48.0 kHz
Frame rate : 1 200.000 FPS (40 SPF)
Compression mode : Lossless
Stream size : 3.82 GiB (29%)
Title : Widows.2018.1080p.BluRay.x264.TrueHD.7.1.Atmos-FGT
Language : English
Default : Yes
Forced : No
Number of dynamic objects : 13
Bed channel count : 1 channel
Bed channel configuration : LFE

Audio #2
ID : 3
Format : AC-3
Format/Info : Audio Coding 3
Commercial name : Dolby Digital
Codec ID : A_AC3
Duration : 2 h 9 min
Bit rate mode : Constant
Bit rate : 640 kb/s
Channel(s) : 6 channels
Channel layout : L R C LFE Ls Rs
Sampling rate : 48.0 kHz
Frame rate : 31.250 FPS (1536 SPF)
Bit depth : 16 bits
Compression mode : Lossy
Stream size : 593 MiB (4%)
Title : Widows.2018.1080p.BluRay.x264.TrueHD.7.1.Atmos-FGT
Language : English
Service kind : Complete Main
Default : No
Forced : No

Text #1
ID : 4
Format : UTF-8
Codec ID : S_TEXT/UTF8
Codec ID/Info : UTF-8 Plain Text
Duration : 47 min 22 s
Bit rate : 0 b/s
Count of elements : 10
Stream size : 280 Bytes (0%)
Title : English-FORCED-SRT
Language : English
Default : Yes
Forced : Yes

Text #2
ID : 5
Format : UTF-8
Codec ID : S_TEXT/UTF8
Codec ID/Info : UTF-8 Plain Text
Duration : 2 h 5 min
Bit rate : 63 b/s
Count of elements : 1895
Stream size : 58.7 KiB (0%)
Title : English-SRT
Language : English
Default : No
Forced : No

Text #3
ID : 6
Format : PGS
Muxing mode : zlib
Codec ID : S_HDMV/PGS
Codec ID/Info : Picture based subtitle format used on BDs/HD-DVDs
Duration : 47 min 22 s
Bit rate : 178 b/s
Count of elements : 20
Stream size : 61.9 KiB (0%)
Title : English-FORCED-PGS
Language : English
Default : No
Forced : Yes

Text #4
ID : 7
Format : PGS
Muxing mode : zlib
Codec ID : S_HDMV/PGS
Codec ID/Info : Picture based subtitle format used on BDs/HD-DVDs
Duration : 2 h 5 min
Bit rate : 45.6 kb/s
Count of elements : 4212
Stream size : 41.1 MiB (0%)
Title : English-PGS
Language : English
Default : No
Forced : No

Text #5
ID : 8
Format : PGS
Muxing mode : zlib
Codec ID : S_HDMV/PGS
Codec ID/Info : Picture based subtitle format used on BDs/HD-DVDs
Duration : 2 h 8 min
Bit rate : 37.8 kb/s
Count of elements : 3252
Stream size : 34.7 MiB (0%)
Title : Chinese-PGS
Language : Chinese
Default : No
Forced : No

Text #6
ID : 9
Format : PGS
Muxing mode : zlib
Codec ID : S_HDMV/PGS
Codec ID/Info : Picture based subtitle format used on BDs/HD-DVDs
Duration : 2 h 8 min
Bit rate : 41.7 kb/s
Count of elements : 3352
Stream size : 38.2 MiB (0%)
Title : Chinese-PGS
Language : Chinese
Default : No
Forced : No

Text #7
ID : 10
Format : PGS
Muxing mode : zlib
Codec ID : S_HDMV/PGS
Codec ID/Info : Picture based subtitle format used on BDs/HD-DVDs
Duration : 2 h 8 min
Bit rate : 50.9 kb/s
Count of elements : 3228
Stream size : 46.7 MiB (0%)
Title : Czech-PGS
Language : Czech
Default : No
Forced : No

Text #8
ID : 11
Format : PGS
Muxing mode : zlib
Codec ID : S_HDMV/PGS
Codec ID/Info : Picture based subtitle format used on BDs/HD-DVDs
Duration : 2 h 8 min
Bit rate : 50.3 kb/s
Count of elements : 2302
Stream size : 46.1 MiB (0%)
Title : Danish-PGS
Language : Danish
Default : No
Forced : No

Text #9
ID : 12
Format : PGS
Muxing mode : zlib
Codec ID : S_HDMV/PGS
Codec ID/Info : Picture based subtitle format used on BDs/HD-DVDs
Duration : 2 h 8 min
Bit rate : 46.8 kb/s
Count of elements : 2150
Stream size : 42.9 MiB (0%)
Title : Dutch-PGS
Language : Dutch
Default : No
Forced : No

Text #10
ID : 13
Format : PGS
Muxing mode : zlib
Codec ID : S_HDMV/PGS
Codec ID/Info : Picture based subtitle format used on BDs/HD-DVDs
Duration : 2 h 8 min
Bit rate : 47.7 kb/s
Count of elements : 3230
Stream size : 43.8 MiB (0%)
Title : Finnish-PGS
Language : Finnish
Default : No
Forced : No

Text #11
ID : 14
Format : PGS
Muxing mode : zlib
Codec ID : S_HDMV/PGS
Codec ID/Info : Picture based subtitle format used on BDs/HD-DVDs
Duration : 2 h 8 min
Bit rate : 49.3 kb/s
Count of elements : 2912
Stream size : 45.2 MiB (0%)
Title : French-PGS
Language : French
Default : No
Forced : No

Text #12
ID : 15
Format : PGS
Muxing mode : zlib
Codec ID : S_HDMV/PGS
Codec ID/Info : Picture based subtitle format used on BDs/HD-DVDs
Duration : 2 h 8 min
Bit rate : 62.3 kb/s
Count of elements : 2994
Stream size : 57.1 MiB (0%)
Title : German-PGS
Language : German
Default : No
Forced : No

Text #13
ID : 16
Format : PGS
Muxing mode : zlib
Codec ID : S_HDMV/PGS
Codec ID/Info : Picture based subtitle format used on BDs/HD-DVDs
Duration : 2 h 8 min
Bit rate : 54.0 kb/s
Count of elements : 3224
Stream size : 49.5 MiB (0%)
Title : Italian-PGS
Language : Italian
Default : No
Forced : No

Text #14
ID : 17
Format : PGS
Muxing mode : zlib
Codec ID : S_HDMV/PGS
Codec ID/Info : Picture based subtitle format used on BDs/HD-DVDs
Duration : 2 h 8 min
Bit rate : 21.7 kb/s
Count of elements : 2843
Stream size : 19.9 MiB (0%)
Title : Japanese-PGS
Language : Japanese
Default : No
Forced : No

Text #15
ID : 18
Format : PGS
Muxing mode : zlib
Codec ID : S_HDMV/PGS
Codec ID/Info : Picture based subtitle format used on BDs/HD-DVDs
Duration : 2 h 8 min
Bit rate : 43.6 kb/s
Count of elements : 3224
Stream size : 39.9 MiB (0%)
Title : Korean-PGS
Language : Korean
Default : No
Forced : No

Text #16
ID : 19
Format : PGS
Muxing mode : zlib
Codec ID : S_HDMV/PGS
Codec ID/Info : Picture based subtitle format used on BDs/HD-DVDs
Duration : 2 h 8 min
Bit rate : 55.4 kb/s
Count of elements : 3232
Stream size : 50.8 MiB (0%)
Title : Norwegian-PGS
Language : Norwegian
Default : No
Forced : No

Text #17
ID : 20
Format : PGS
Muxing mode : zlib
Codec ID : S_HDMV/PGS
Codec ID/Info : Picture based subtitle format used on BDs/HD-DVDs
Duration : 2 h 8 min
Bit rate : 45.3 kb/s
Count of elements : 2794
Stream size : 41.6 MiB (0%)
Title : Polish-PGS
Language : Polish
Default : No
Forced : No

Text #18
ID : 21
Format : PGS
Muxing mode : zlib
Codec ID : S_HDMV/PGS
Codec ID/Info : Picture based subtitle format used on BDs/HD-DVDs
Duration : 2 h 8 min
Bit rate : 56.5 kb/s
Count of elements : 3044
Stream size : 51.8 MiB (0%)
Title : Spanish-PGS
Language : Spanish
Default : No
Forced : No

Text #19
ID : 22
Format : PGS
Muxing mode : zlib
Codec ID : S_HDMV/PGS
Codec ID/Info : Picture based subtitle format used on BDs/HD-DVDs
Duration : 2 h 8 min
Bit rate : 59.2 kb/s
Count of elements : 3204
Stream size : 54.3 MiB (0%)
Title : Spanish-PGS
Language : Spanish
Default : No
Forced : No

Text #20
ID : 23
Format : PGS
Muxing mode : zlib
Codec ID : S_HDMV/PGS
Codec ID/Info : Picture based subtitle format used on BDs/HD-DVDs
Duration : 2 h 8 min
Bit rate : 53.6 kb/s
Count of elements : 3210
Stream size : 49.1 MiB (0%)
Title : Swedish-PGS
Language : Swedish
Default : No
Forced : No

Menu
00:00:00.000 : en:Chapter 01
00:03:41.388 : en:Chapter 02
00:09:00.415 : en:Chapter 03
00:14:14.604 : en:Chapter 04
00:21:43.010 : en:Chapter 05
00:28:14.401 : en:Chapter 06
00:36:07.082 : en:Chapter 07
00:41:01.751 : en:Chapter 08
00:45:58.673 : en:Chapter 09
00:53:18.070 : en:Chapter 10
00:58:11.321 : en:Chapter 11
01:03:51.703 : en:Chapter 12
01:09:56.776 : en:Chapter 13
01:12:53.786 : en:Chapter 14
01:17:21.846 : en:Chapter 15
01:26:19.674 : en:Chapter 16
01:33:29.312 : en:Chapter 17
01:35:53.373 : en:Chapter 18
01:39:10.486 : en:Chapter 19
01:42:20.092 : en:Chapter 20
01:46:12.408 : en:Chapter 21
01:53:14.121 : en:Chapter 22
01:58:18.675 : en:Chapter 23

02:03:48.671 : en:Chapter 24



上传的附件:
最新回复 (0)
返回