[GSCQ]绿毛怪格林奇 The.Grinch.2018.1080p.BluRay.x264.TrueHD.7.1.Atmos-FGT 7GB 2018 欧美 动画

DarkMeridian 2019-02-11 01:19 1488

The.Grinch.2018.1080p.BluRay.x264.TrueHD.7.1.Atmos-FGT

◎译  名 绿毛怪格林奇 / Dr. Seuss’ The Grinch / Dr. Suess‘ How the Grinch Stole Christmas / 圣诞怪怪杰(港) / 圣诞怪杰 / 苏斯博士的圣诞怪杰 / 鬼灵精(台)

◎片  名 The Grinch

◎年  代 2018

◎产  地 法国 / 中国大陆 / 日本 / 美国

◎类  别 喜剧 / 动画 / 奇幻

◎语  言 英语

◎上映日期 2018-11-09(美国) / 2018-12-14(中国大陆)

◎IMDb评分 6.4/10 from 18555 users

◎IMDb链接 http://www.imdb.com/title/tt2709692

◎豆瓣评分 6.5/10 from 4097 users

◎豆瓣链接 https://movie.douban.com/subject/23774869/

◎片  长 90分钟

◎导  演 亚罗·切尼 Yarrow Cheney / 斯科特·摩西尔 Scott Mosier

◎编  剧 迈克尔·勒西厄尔 Michael LeSieur / 汤米·斯威德洛 Tommy Swerdlow / 苏斯博士 Dr. Seuss

◎主  演 本尼迪克特·康伯巴奇 Benedict Cumberbatch

      卡梅伦·丝蕾 Cameron Seely

      拉什达·琼斯 Rashida Jones

      法瑞尔·威廉姆斯 Pharrell Williams

      特里斯坦·奥哈尔 Tristan O'Hare

      基南·汤普森 Kenan Thompson

      山姆·拉瓦尼诺 Sam Lavagnino

      雷蒙·汉密尔顿 Ramone Hamilton

      安吉拉·兰斯伯瑞 Angela Lansbury

      斯嘉丽·艾斯特维兹 Scarlett Estevez

      迈克尔·贝亚蒂 Michael Beattie

      罗里·艾伦 Lori Alan

      卡特·海斯汀斯 Carter Hastings

      卡洛斯·阿拉斯拉奇 Carlos Alazraqui

      约翰·卡西尔 John Kassir

      凯茜·卡瓦蒂妮 Cathy Cavadini

      丹尼·曼恩 Danny Mann

      杰里米·马克斯韦尔 Jeremy Maxwell

      汤森·科尔曼 Townsend Coleman

      斯科特·摩西尔 Scott Mosier

      梅里·康德伦 Meilee Condron

      拉瑞恩·纽曼 Laraine Newman

      布莱恩·T·德莱尼 Brian T. Delaney

      约翰·德米塔 John DeMita

      比尔·法玛尔 Bill Farmer

      乔尔·斯维唐 Joel Swetow

      亚伦·福尔斯 Aaron Fors

      明迪·斯特林 Mindy Sterling

      塔拉·斯特朗 Tara Strong

      杰斯·哈梅尔 Jess Harnell

      雷吉纳·托芬 Regina Taufen

      吉姆·瓦德 Jim Ward



◎标  签 动画 | 美国 | 喜剧 | 2018 | 圣诞 | 童话改编 | 奇幻 | 圣诞片


◎简  介  


  《圣诞怪杰》根据“苏斯博士”(Dr. Seuss)的著名畅销童书改编,故事主角是一个绿色的怪物格林奇(Grinch),他非常非常痛恨圣诞节,因为他是一个孤儿。为了不让人们过圣诞,他把所有圣诞礼物都偷走了。最后还是一个纯真的小女孩融化了他冷漠的心。


◎获奖情况  


  第46届动画安妮奖(2019)

  最佳配乐(提名)

  最佳剪辑(提名)

  最佳分镜(提名)


  第30届美国制片人工会奖(2019)

  最佳动画片制片人奖(提名)


  第23届美国艺术指导工会奖(2019)

  电影奖 最佳动画电影艺术指导(提名) Colin Stimpson


  第66届美国音效剪辑协会奖(2019)

  金卷轴奖 最佳动画片音效剪辑(提名)


  第17届美国视觉效果协会奖(2019)

  最佳动画电影视觉效果(提名)

  最佳动画电影CG动画角色(提名)

  最佳动画电影CG背景(提名)

  最佳动画电影模拟动画效果(提名)


  第55届美国声音效果协会奖(2019)

  动画电影最佳音效(提名)


  第24届美国评论家选择电影奖(2019)

  最佳动画片(提名)


Video
ID : 1
Format : AVC
Format/Info : Advanced Video Codec
Format profile : High@L4.1
Format settings : CABAC / 5 Ref Frames
Format settings, CABAC : Yes
Format settings, ReFrames : 5 frames
Codec ID : V_MPEG4/ISO/AVC
Duration : 1 h 25 min
Bit rate : 6 651 kb/s
Width : 1 920 pixels
Height : 808 pixels
Display aspect ratio : 2.40:1
Frame rate mode : Constant
Frame rate : 23.976 (24000/1001) FPS
Color space : YUV
Chroma subsampling : 4:2:0
Bit depth : 8 bits
Scan type : Progressive
Bits/(Pixel*Frame) : 0.179
Stream size : 3.99 GiB (57%)
Title : The.Grinch.2018.1080p.BluRay.x264.TrueHD.7.1.Atmos-FGT
Writing library : x264 core 157 r2935 545de2f
Encoding settings : cabac=1 / ref=5 / deblock=1:1:1 / analyse=0x3:0x113 / me=umh / subme=8 / psy=1 / psy_rd=0.40:0.00 / mixed_ref=1 / me_range=16 / chroma_me=1 / trellis=1 / 8x8dct=1 / cqm=0 / deadzone=21,11 / fast_pskip=1 / chroma_qp_offset=-2 / threads=24 / lookahead_threads=4 / sliced_threads=0 / nr=0 / decimate=1 / interlaced=0 / bluray_compat=0 / constrained_intra=0 / bframes=5 / b_pyramid=2 / b_adapt=1 / b_bias=0 / direct=3 / weightb=1 / open_gop=0 / weightp=2 / keyint=250 / keyint_min=23 / scenecut=40 / intra_refresh=0 / rc_lookahead=50 / rc=2pass / mbtree=1 / bitrate=6651 / ratetol=1.0 / qcomp=0.60 / qpmin=0 / qpmax=69 / qpstep=4 / cplxblur=20.0 / qblur=0.5 / ip_ratio=1.40 / aq=1:0.60
Language : English
Default : Yes
Forced : No

Audio #1
ID : 2
Format : MLP FBA 16-ch
Format/Info : Meridian Lossless Packing FBA with 16-channel presentation
Commercial name : Dolby TrueHD with Dolby Atmos
Codec ID : A_TRUEHD
Duration : 1 h 25 min
Bit rate mode : Variable
Bit rate : 4 289 kb/s
Maximum bit rate : 6 513 kb/s
Channel(s) : 8 channels
Channel layout : L R C LFE Ls Rs Lb Rb
Sampling rate : 48.0 kHz
Frame rate : 1 200.000 FPS (40 SPF)
Compression mode : Lossless
Stream size : 2.57 GiB (37%)
Title : The.Grinch.2018.1080p.BluRay.x264.TrueHD.7.1.Atmos-FGT
Language : English
Default : No
Forced : No
Number of dynamic objects : 11
Bed channel count : 1 channel
Bed channel configuration : LFE

Audio #2
ID : 3
Format : AC-3
Format/Info : Audio Coding 3
Commercial name : Dolby Digital
Codec ID : A_AC3
Duration : 1 h 25 min
Bit rate mode : Constant
Bit rate : 640 kb/s
Channel(s) : 6 channels
Channel layout : L R C LFE Ls Rs
Sampling rate : 48.0 kHz
Frame rate : 31.250 FPS (1536 SPF)
Bit depth : 16 bits
Compression mode : Lossy
Stream size : 393 MiB (5%)
Title : The.Grinch.2018.1080p.BluRay.x264.TrueHD.7.1.Atmos-FGT
Language : English
Service kind : Complete Main
Default : Yes
Forced : No

Text #1
ID : 4
Format : UTF-8
Codec ID : S_TEXT/UTF8
Codec ID/Info : UTF-8 Plain Text
Duration : 1 h 17 min
Bit rate : 52 b/s
Count of elements : 1024
Stream size : 30.0 KiB (0%)
Title : English-SRT
Language : English
Default : Yes
Forced : No

Text #2
ID : 5
Format : PGS
Muxing mode : zlib
Codec ID : S_HDMV/PGS
Codec ID/Info : Picture based subtitle format used on BDs/HD-DVDs
Duration : 1 h 20 min
Bit rate : 41.3 kb/s
Count of elements : 2608
Stream size : 23.6 MiB (0%)
Title : English-PGS
Language : English
Default : No
Forced : No

Text #3
ID : 6
Format : PGS
Muxing mode : zlib
Codec ID : S_HDMV/PGS
Codec ID/Info : Picture based subtitle format used on BDs/HD-DVDs
Duration : 1 h 25 min
Bit rate : 28.6 kb/s
Count of elements : 1992
Stream size : 17.4 MiB (0%)
Title : French-PGS
Language : French
Default : No
Forced : No

Text #4
ID : 7
Format : PGS
Muxing mode : zlib
Codec ID : S_HDMV/PGS
Codec ID/Info : Picture based subtitle format used on BDs/HD-DVDs
Duration : 1 h 24 min
Bit rate : 29.0 kb/s
Count of elements : 2094
Stream size : 17.6 MiB (0%)
Title : Spanish-PGS
Language : Spanish
Default : No
Forced : No

Menu
00:00:00.000 : en:Chapter 01
00:05:40.298 : en:Chapter 02
00:10:35.927 : en:Chapter 03
00:14:14.103 : en:Chapter 04
00:17:45.106 : en:Chapter 05
00:22:19.296 : en:Chapter 06
00:26:28.337 : en:Chapter 07
00:30:45.093 : en:Chapter 08
00:34:46.584 : en:Chapter 09
00:38:37.190 : en:Chapter 10
00:44:40.595 : en:Chapter 11
00:47:27.678 : en:Chapter 12
00:52:37.488 : en:Chapter 13
00:56:33.181 : en:Chapter 14
01:01:04.995 : en:Chapter 15
01:05:34.639 : en:Chapter 16
01:07:23.456 : en:Chapter 17
01:12:14.914 : en:Chapter 18
01:14:12.782 : en:Chapter 19
01:18:08.309 : en:Chapter 20



上传的附件:
最新回复 (0)
返回