[GSCQ][节哀顺变 Sorry For Your Loss 第一季][全10集打包][英语英字][MKV][1080P] 2018 美国 剧情 打包

love2001 2019-02-11 01:09 1536

◎译  名 节哀顺变 第一季

◎片  名 Sorry for Your Loss Season 1

◎年  代 2018

◎产  地 美国

◎类  别 剧情

◎语  言 英语

◎上映日期 2018-09-18(美国)

◎IMDb评分 7.3/10 from 578 users

◎IMDb链接 http://www.imdb.com/title/tt8000638

◎豆瓣评分 6.9/10 from 539 users

◎豆瓣链接 https://movie.douban.com/subject/30148181/

◎集  数 10

◎片  长 30分钟

◎导  演 詹姆斯·庞索特 James Ponsoldt

◎编  剧 德斯塔·特德罗斯·赖弗 Desta Tedros Reff

◎主  演 伊丽莎白·奥尔森 Elizabeth Olsen

      凯莉·玛丽·陈 Kelly Marie Tran

      约翰·艾德坡 Jovan Adepo

      马莫多·阿西 Mamoudou Athie

      珍妮·麦克蒂尔 Janet McTeer

      萨克·罗比达斯 Zack Robidas

      艾莎·阿尔法 Aisha Alfa

      唐·麦克马纳斯 Don McManus

      普娜·贾甘纳坦 Poorna Jagannathan

      亚历山大·柯克 Alexander Koch

◎简  介  


  凯莉·玛丽·陈(《星球大战8》)加盟伊丽莎白·奥尔森主演Facebook新剧,该剧正式定名为《节哀顺变》(Sorry for Your Loss),题材为黑色喜剧。讲述年轻寡妇Leigh Gibbs(奥尔森)一边处理失去丈夫的悲痛,一边与过去重新建立关系。玛丽·陈饰演Leigh的妹妹Jules,她是派对上最有趣的女孩,也是最难相处的女孩,随着姐夫去世,她每天都在努力尝试保持清醒,同时摆脱“家中心有余而力不足的灾难”这一角色。

Kit Steinkellner(《缘起泽尔达》)创作,Lizzy Weiss(《错位青春》)担任运作人,James Ponsoldt(《好景当前》《无为大师》)执导首集及其中几集,并担任执行制片人,奥尔森也参与制片。该剧共10集,每集半小时,将在Facebook Watch平台上播出。


◎获奖情况  


  第9届美国评论家选择电视奖(2019)

  剧情类最佳女主角(提名) 伊丽莎白·奥尔森


Video
ID : 1
Format : AVC
Format/Info : Advanced Video Codec
Format profile : Main@L4
Format settings : CABAC / 5 Ref Frames
Format settings, CABAC : Yes
Format settings, ReFrames : 5 frames
Codec ID : V_MPEG4/ISO/AVC
Duration : 27 min 3 s
Bit rate : 1 250 kb/s
Width : 1 920 pixels
Height : 1 080 pixels
Display aspect ratio : 16:9
Frame rate mode : Constant
Frame rate : 23.976 (23976/1000) FPS
Color space : YUV
Chroma subsampling : 4:2:0
Bit depth : 8 bits
Scan type : Progressive
Bits/(Pixel*Frame) : 0.025
Stream size : 242 MiB (96%)
Writing library : x264 core 148
Encoding settings : cabac=1 / ref=5 / deblock=1:0:0 / analyse=0x1:0x111 / me=hex / subme=8 / psy=0 / mixed_ref=1 / me_range=16 / chroma_me=1 / trellis=2 / 8x8dct=0 / cqm=0 / deadzone=21,11 / fast_pskip=1 / chroma_qp_offset=0 / threads=34 / lookahead_threads=5 / sliced_threads=0 / nr=0 / decimate=1 / interlaced=0 / bluray_compat=0 / constrained_intra=0 / bframes=3 / b_pyramid=2 / b_adapt=1 / b_bias=0 / direct=3 / weightb=1 / open_gop=0 / weightp=2 / keyint=48 / keyint_min=25 / scenecut=0 / intra_refresh=0 / rc_lookahead=48 / rc=crf / mbtree=1 / crf=26.0 / qcomp=0.60 / qpmin=0 / qpmax=69 / qpstep=4 / vbv_maxrate=16200 / vbv_bufsize=32400 / crf_max=0.0 / nal_hrd=none / filler=0 / ip_ratio=1.40 / aq=2:1.00
Default : Yes
Forced : No

Audio
ID : 2
Format : AAC LC SBR PS
Format/Info : Advanced Audio Codec Low Complexity with Spectral Band Replication and Parametric Stereo
Commercial name : HE-AACv2
Format settings : NBC
Codec ID : A_AAC-29
Duration : 27 min 4 s
Bit rate : 48.0 kb/s
Channel(s) : 2 channels
Channel layout : C
Sampling rate : 48.0 kHz
Frame rate : 23.438 FPS (2048 SPF)
Compression mode : Lossy
Stream size : 9.29 MiB (4%)
Language : English
Default : Yes
Forced : No

Text #1
ID : 3
Format : UTF-8
Codec ID : S_TEXT/UTF8
Codec ID/Info : UTF-8 Plain Text
Duration : 26 min 50 s
Bit rate : 65 b/s
Count of elements : 478
Stream size : 12.8 KiB (0%)
Language : English
Default : No
Forced : No

Text #2
ID : 4
Format : UTF-8
Codec ID : S_TEXT/UTF8
Codec ID/Info : UTF-8 Plain Text
Duration : 26 min 50 s
Bit rate : 75 b/s
Count of elements : 577
Stream size : 14.8 KiB (0%)
Title : SDH
Language : English
Default : No
Forced : No



上传的附件:
最新回复 (0)
返回