[GSCQ][104号房间/Room 104 第二季][全12集打包][英语英字][MKV][1080P] 2018 美国 喜剧 打包

love2001 2019-02-11 01:08 1548


◎译  名 104号房间 第二季

◎片  名 Room 104 Season 2

◎年  代 2018

◎产  地 美国

◎类  别 剧情 / 惊悚 / 恐怖

◎语  言 英语

◎上映日期 2018-11-09(美国)

◎IMDb评分 6.7/10 from 16 users

◎IMDb链接 http://www.imdb.com/title/tt7294000

◎集  数 12

◎片  长 30分钟

◎导  演 罗斯·帕特里奇 Ross Partridge

◎编  剧 杰伊·杜普拉斯 Jay Duplass / 马克·杜普拉斯 Mark Duplass

◎主  演 珍妮弗·拉弗勒 Jennifer Lafleur

      汤姆·伦克 Tom Lenk

      Pia Shah

      查琳·易 Charlyne Yi

◎简  介  


  HBO正式宣布续订《104号房间》第二季。

该剧一集一个故事,将讲述每集该房间的不同房客,离奇怪诞的故事,有点类似#9号秘事#  


Video
ID : 1
Format : AVC
Format/Info : Advanced Video Codec
Format profile : High@L4
Format settings : CABAC / 4 Ref Frames
Format settings, CABAC : Yes
Format settings, ReFrames : 4 frames
Codec ID : V_MPEG4/ISO/AVC
Duration : 28 min 53 s
Bit rate : 13.1 Mb/s
Width : 1 920 pixels
Height : 1 080 pixels
Display aspect ratio : 16:9
Frame rate mode : Constant
Frame rate : 23.976 (24000/1001) FPS
Color space : YUV
Chroma subsampling : 4:2:0
Bit depth : 8 bits
Scan type : Progressive
Bits/(Pixel*Frame) : 0.263
Stream size : 2.63 GiB (95%)
Default : Yes
Forced : No
Color range : Limited
Color primaries : BT.709
Transfer characteristics : BT.709
Matrix coefficients : BT.709

Audio
ID : 2
Format : E-AC-3
Format/Info : Enhanced AC-3
Commercial name : Dolby Digital Plus
Codec ID : A_EAC3
Duration : 28 min 53 s
Bit rate mode : Constant
Bit rate : 640 kb/s
Channel(s) : 6 channels
Channel layout : L R C LFE Ls Rs
Sampling rate : 48.0 kHz
Frame rate : 31.250 FPS (1536 SPF)
Compression mode : Lossy
Stream size : 132 MiB (5%)
Language : English
Service kind : Complete Main
Default : Yes
Forced : No

Text
ID : 3
Format : UTF-8
Codec ID : S_TEXT/UTF8
Codec ID/Info : UTF-8 Plain Text
Duration : 28 min 43 s
Bit rate : 79 b/s
Count of elements : 531
Stream size : 16.6 KiB (0%)
Title : SDH
Language : English
Default : No
Forced : No



上传的附件:
最新回复 (0)
返回