[GSCQ][鸦林镇/Ravenswood 第一季][全10集打包][英语英字][MKV][1080P] 2013 美国 剧情 打包

love2001 2019-02-11 01:07 1620

◎译  名 鸦林镇

◎片  名 Ravenswood

◎年  代 2013

◎产  地 美国

◎类  别 剧情

◎语  言 英语

◎上映日期 2013-10-22(美国)

◎IMDb评分 6.6/10 from 7753 users

◎IMDb链接 http://www.imdb.com/title/tt2799012

◎豆瓣评分 5.4/10 from 251 users

◎豆瓣链接 https://movie.douban.com/subject/23697894/

◎集  数 10

◎片  长 43

◎导  演 I. Marlene King

◎编  剧 I. Marlene King

◎主  演 Tyler Blackburn

      Brett Dier

      Nicole Gale Anderson

      Merritt Patterson

      Britne Oldford

◎简  介  


  该剧描述五个陌生人被困扰鸦林镇多年的神秘诅咒联系在一起,他们必须详细调查小镇的历史并阻止悲剧事件继续发生。主人公Miranda是一位活跃果敢、拥有个人魅力的17岁少女,在收养家庭长大,个性独立,充满自信,但她的生活并不容易。她用智慧来掩盖情感伤疤。如果你能让这位强硬的女孩对你敞开心扉,你将得到一个一生忠诚的朋友。Abel是一位17岁少年,英俊健美,但是为人像一头独狼。他可能是个潜在的危险分子,但也有可能他竭力用这种令人敬而远之的外表来掩盖内心的伤。你很难得到他的信任,可一旦他真的信任你,他绝不会让你失望。Olivia是Abel的双胞胎姐妹,曾经是校园舞会皇后,但因为最近发生一件丢脸的事情而名誉扫地。她过去无忧无虑,现在却时常考虑人生孰轻孰重。她过去的朋友纷纷背叛她,她不知道谁才是她真正的朋友。


Video
ID : 1
Format : AVC
Format/Info : Advanced Video Codec
Format profile : High@L4
Format settings : CABAC / 4 Ref Frames
Format settings, CABAC : Yes
Format settings, ReFrames : 4 frames
Codec ID : V_MPEG4/ISO/AVC
Duration : 42 min 34 s
Bit rate : 7 802 kb/s
Width : 1 920 pixels
Height : 1 080 pixels
Display aspect ratio : 16:9
Frame rate mode : Constant
Frame rate : 23.976 (24000/1001) FPS
Color space : YUV
Chroma subsampling : 4:2:0
Bit depth : 8 bits
Scan type : Progressive
Bits/(Pixel*Frame) : 0.157
Stream size : 2.32 GiB (92%)
Default : Yes
Forced : No
Color range : Limited
Color primaries : BT.709
Transfer characteristics : BT.709
Matrix coefficients : BT.709

Audio
ID : 2
Format : E-AC-3
Format/Info : Enhanced AC-3
Commercial name : Dolby Digital Plus
Codec ID : A_EAC3
Duration : 42 min 34 s
Bit rate mode : Constant
Bit rate : 640 kb/s
Channel(s) : 6 channels
Channel layout : L R C LFE Ls Rs
Sampling rate : 48.0 kHz
Frame rate : 31.250 FPS (1536 SPF)
Compression mode : Lossy
Stream size : 195 MiB (8%)
Language : English
Service kind : Complete Main
Default : Yes
Forced : No

Text
ID : 3
Format : UTF-8
Codec ID : S_TEXT/UTF8
Codec ID/Info : UTF-8 Plain Text
Duration : 41 min 15 s
Bit rate : 63 b/s
Count of elements : 652
Stream size : 19.3 KiB (0%)
Title : English (SDH)
Language : English
Default : No
Forced : No



上传的附件:
最新回复 (0)
返回